#TITLE:insominac;
#SUBTITLE:;
#ARTIST:Bunii;
#TITLETRANSLIT:;
#SUBTITLETRANSLIT:;
#ARTISTTRANSLIT:;
#GENRE:;
#CREDIT:;
#BANNER:;
#BACKGROUND:;
#LYRICSPATH:;
#CDTITLE:;
#MUSIC:insomniac.ogg;
#OFFSET:0.000000;
#SAMPLESTART:0.059886;
#SAMPLELENGTH:12.000000;
#SELECTABLE:YES;
#BPMS:0.000000=180.000000
;
#STOPS:0.000000=1.400000
;
#BGCHANGES:;
#KEYSOUNDS:;
#ATTACKS:;

//---------------dance-single - ----------------
#NOTES:
     dance-single:
     :
     Hard:
     12:
     0.522548,0.913200,0.231764,0.120920,0.115882,363.000000,340.000000,23.000000,12.000000,0.000000,0.000000,0.522548,0.913200,0.231764,0.120920,0.115882,363.000000,340.000000,23.000000,12.000000,0.000000,0.000000:
// measure 0
0000
0000
0000
0000
,  // measure 1
0000
0000
0000
0000
,  // measure 2
0000
0000
0000
0000
,  // measure 3
0000
0000
0000
0000
,  // measure 4
0001
0100
1000
0000
0001
0100
0010
0000
,  // measure 5
0001
0100
1000
0000
0001
0100
0010
0000
,  // measure 6
0001
0100
1000
0000
0001
0100
0010
0000
,  // measure 7
0001
0100
0010
0000
0100
0001
0100
0000
,  // measure 8
0001
0100
0010
0000
1000
0001
0100
0000
,  // measure 9
0001
0100
1000
0000
0010
0100
0001
0000
,  // measure 10
1000
0100
0001
0000
0010
0100
0001
0000
,  // measure 11
0100
0001
0100
0010
0001
1000
0001
0100
,  // measure 12
1000
0000
0010
0001
0100
0001
0100
0000
,  // measure 13
0001
0100
0010
0000
0001
0100
1000
0000
,  // measure 14
0001
0100
0001
0000
0001
1000
0100
0000
,  // measure 15
0010
0100
0001
0000
1000
0100
0001
0000
,  // measure 16
0002
0003
0200
0000
,  // measure 17
0300
0000
0100
0001
1000
0010
0000
0200
,  // measure 18
0000
0000
0000
0000
,  // measure 19
0300
0100
0001
1000
0001
0000
0010
0000
,  // measure 20
0100
0001
0200
0000
,  // measure 21
0300
1000
0100
0001
0000
0010
0200
0000
,  // measure 22
0000
0000
0000
0000
,  // measure 23
0000
0000
0300
0100
,  // measure 24
0100
2000
0000
0000
,  // measure 25
3000
0100
0001
1000
0100
0010
0000
0200
,  // measure 26
0000
0000
0000
0000
,  // measure 27
0300
0000
0100
0010
0001
1000
0001
0100
,  // measure 28
1000
1000
0001
0000
,  // measure 29
0000
0100
0001
1000
0001
0100
0000
0020
,  // measure 30
0000
0000
0000
0000
,  // measure 31
0000
0000
0000
0000
0000
0000
0000
0030
,  // measure 32
0001
0100
0001
0100
0010
0001
1000
0001
0100
0010
0100
0000
,  // measure 33
1001
0000
0000
0110
0000
0000
0101
0000
0110
0000
0000
1100
0000
0000
0101
0000
,  // measure 34
0010
0001
0100
0001
0100
0010
0001
1000
0001
0100
1000
0000
,  // measure 35
0110
0000
0000
1100
0000
0000
0110
0000
0101
0000
0000
0110
0000
0000
1001
0000
,  // measure 36
0110
0000
0000
0110
0000
0000
0101
0000
0110
0000
0000
1100
0000
0000
0101
0000
,  // measure 37
0001
0100
0001
0010
0100
0100
0100
0000
,  // measure 38
0001
0100
0010
0000
0001
0100
0010
0000
,  // measure 39
0001
0100
1000
0000
0001
0100
0010
0000
,  // measure 40
0001
0100
0010
0000
0001
0100
1000
0000
,  // measure 41
0100
0000
0010
0000
1000
0000
0100
0001
0010
0000
0100
0000
0001
0000
0000
0000
,  // measure 42
0010
0001
0100
0000
0010
0100
0001
0000
,  // measure 43
1000
0001
0100
0000
0010
0100
0001
0000
,  // measure 44
1000
0001
0100
0000
0010
0100
0001
0000
,  // measure 45
1000
0001
0100
0100
0000
0000
0000
1000
,  // measure 46
0100
0001
0000
1000
0000
0100
0000
0001
,  // measure 47
0000
1000
0000
0200
0000
0300
0001
0010
,  // measure 48
0000
0100
0000
0001
0000
0100
0000
0010
,  // measure 49
0000
0000
0010
0100
0001
0000
0001
0000
0000
0000
0100
0000
0000
0000
0001
0000
,  // measure 50
0000
0100
0000
0001
0000
1000
0000
0100
,  // measure 51
0000
0010
0000
0001
0000
0000
0100
1000
,  // measure 52
0000
0001
0000
0100
0000
0010
0000
0001
,  // measure 53
0000
1000
0000
0100
0000
0000
0100
0001
,  // measure 54
0000
0001
0000
0100
0000
0010
0000
0001
,  // measure 55
0000
1000
0000
0100
0000
0000
0010
0100
,  // measure 56
0000
0001
0000
0001
0000
0100
0000
0010
,  // measure 57
0000
0000
0010
0001
0100
0000
1000
0000
0000
0000
0000
0000
0100
0000
0001
0000
,  // measure 58
0000
1000
0000
0100
0000
0010
0000
0001
,  // measure 59
0000
0100
0000
1000
0100
0010
0001
0100
,  // measure 60
0001
0100
0010
0001
1000
0001
0100
0010
,  // measure 61
0001
1000
0001
0100
1000
0010
0001
0100
,  // measure 62
0001
0100
0010
0100
0001
0100
0001
0100
,  // measure 63
0010
0001
1000
0001
0100
0010
0001
1000
,  // measure 64
0001
0100
0010
0001
1000
0001
0100
2000
,  // measure 65
0000
0000
0000
0000
,  // measure 66
3000
0000
0100
0001
1000
0000
1000
0001
,  // measure 67
0100
0000
0010
0001
0100
0000
0001
0100
,  // measure 68
0010
0000
0001
1000
0100
0000
0001
0100
,  // measure 69
1000
0101
0110
2200
,  // measure 70
0000
0000
0000
0000
,  // measure 71
0000
0000
0000
0000
,  // measure 72
3300
0101
0101
0000
;
