#VERSION:0.83;
#TITLE:into the floor;
#SUBTITLE:;
#ARTIST:RomancePlanet;
#TITLETRANSLIT:;
#SUBTITLETRANSLIT:;
#ARTISTTRANSLIT:;
#GENRE:;
#ORIGIN:;
#CREDIT:;
#BANNER:;
#BACKGROUND:;
#PREVIEWVID:;
#JACKET:;
#CDIMAGE:;
#DISCIMAGE:;
#LYRICSPATH:;
#CDTITLE:;
#MUSIC:ROMANCEPLANET - INTO THE FLOOR (OFFICIAL MUSIC VIDEO).ogg;
#OFFSET:0.000000;
#SAMPLESTART:0.059886;
#SAMPLELENGTH:12.000000;
#SELECTABLE:YES;
#BPMS:0.000=138.000;
#STOPS:0.000=0.550,
96.000=0.050,
103.000=0.050,
112.000=1.700;
#DELAYS:;
#WARPS:;
#TIMESIGNATURES:0.000=4=4;
#TICKCOUNTS:0.000=4;
#COMBOS:0.000=1;
#SPEEDS:0.000=1.000=0.000=0;
#SCROLLS:0.000=1.000;
#FAKES:;
#LABELS:0.000=Song Start;
#BGCHANGES:0.000=ROMANCEPLANET - INTO THE FLOOR (OFFICIAL MUSIC VIDEO).mp4=1.000=0=0=1=====,
99999=-nosongbg-=1.000=0=0=0 // don't automatically add -songbackground-
;
#KEYSOUNDS:;
#ATTACKS:
;

//---------------dance-single - ----------------
#NOTEDATA:;
#CHARTNAME:;
#STEPSTYPE:dance-single;
#DESCRIPTION:;
#CHARTSTYLE:;
#DIFFICULTY:Hard;
#METER:11;
#RADARVALUES:0.443489,0.591225,0.800823,0.000000,0.098867,314.000000,233.000000,81.000000,0.000000,0.000000,0.000000,0.000000,0.000000,0.000000,0.443489,0.591225,0.800823,0.000000,0.098867,314.000000,233.000000,81.000000,0.000000,0.000000,0.000000,0.000000,0.000000,0.000000;
#CREDIT:;
#NOTES:
// measure 0
0000
0000
0000
0000
,  // measure 1
0000
0000
0000
0000
,  // measure 2
0000
0000
0000
0000
,  // measure 3
0000
0000
0000
0000
,  // measure 4
0000
0000
0000
0000
,  // measure 5
0000
0000
0000
0000
,  // measure 6
0000
0000
0000
0000
,  // measure 7
0000
0000
0000
0000
,  // measure 8
0000
0000
0000
1000
0100
0000
0001
0000
,  // measure 9
0100
0000
0000
0010
0001
0000
0100
0000
,  // measure 10
0000
0000
0000
0000
1000
0001
0100
0000
,  // measure 11
0010
0000
0010
0001
0000
0010
0100
0000
,  // measure 12
0000
0000
0000
0010
0001
0000
0100
0000
,  // measure 13
0010
0000
0000
0001
0000
0000
0100
0000
,  // measure 14
0000
0000
0000
0100
0010
0000
0001
0000
,  // measure 15
0100
0000
0000
0010
0000
0100
0001
0000
,  // measure 16
0010
0000
0000
0100
0001
0000
0100
0000
,  // measure 17
0101
0000
0000
1001
0000
0000
0000
0000
0000
0000
0000
0000
0000
0000
0000
0000
,  // measure 18
0110
0000
0000
0101
0000
0000
0000
0000
0000
0000
0000
0000
0000
0000
0000
0000
,  // measure 19
0011
0000
0000
0100
0001
0000
1000
0000
0000
0000
0000
0000
0000
0000
0000
0000
,  // measure 20
0100
0000
0010
0100
0001
0000
0100
0000
0010
0000
0000
0000
0101
0000
0000
0000
,  // measure 21
1100
0110
0110
0101
,  // measure 22
0110
0000
0000
0000
1100
0000
0000
0000
0110
0000
0000
0000
0110
0000
0100
0010
,  // measure 23
0001
0110
1100
0110
,  // measure 24
0110
0000
0101
0100
1000
0010
0100
0001
,  // measure 25
1001
0101
0110
1001
,  // measure 26
0101
0000
0000
0000
0110
0000
0000
0000
0110
0000
0000
0000
1001
0000
0100
0001
,  // measure 27
1000
0110
0101
0110
,  // measure 28
1001
0000
0110
0110
0110
0000
0101
0000
,  // measure 29
0110
0000
0000
0000
1001
0000
1001
0000
1001
0000
0100
0000
0010
0000
0001
0100
,  // measure 30
1000
0000
0110
0010
0010
0100
1000
0100
,  // measure 31
0011
0000
0110
0100
0001
1000
0001
0100
,  // measure 32
1001
0110
0110
0101
,  // measure 33
0110
0000
0000
0000
1001
0000
0100
0000
0001
0000
0100
0000
0010
0000
0001
0100
,  // measure 34
1000
0000
0110
0010
0001
1000
0001
0100
,  // measure 35
1000
0000
0000
0100
0001
0000
1000
0000
0100
0001
0010
0100
0001
0100
1000
0001
,  // measure 36
0010
0000
0000
0100
0001
1000
0001
0100
,  // measure 37
1000
0000
0000
0010
0001
1000
0001
0100
,  // measure 38
1000
0000
0000
0001
1000
0001
0100
0001
,  // measure 39
1100
0000
0000
0001
1000
0001
0100
0010
,  // measure 40
1001
0000
0000
0100
0010
0001
1000
0001
,  // measure 41
0100
0000
0000
0000
0000
0000
0001
0000
0100
0000
1000
0000
0001
0000
0100
0010
,  // measure 42
0001
0000
0000
0000
0000
0000
0010
0000
1000
0100
0010
0000
0001
0010
0100
0000
,  // measure 43
0110
0000
1001
0001
0100
0000
1000
0000
,  // measure 44
0101
0000
0101
0000
0110
0000
1001
1001
,  // measure 45
1001
0000
0000
0000
0101
0000
0000
0000
0110
0000
0000
0000
0100
0000
1000
0001
,  // measure 46
0100
0000
0101
0000
0110
0000
1001
1001
,  // measure 47
1001
0000
0100
0001
1000
0010
0100
0000
0010
0000
0000
0000
0100
0000
0000
0000
,  // measure 48
0101
0110
1100
1100
,  // measure 49
0101
0000
0000
0000
0110
0000
0000
0000
0101
0000
0000
0000
0010
0000
0100
0001
,  // measure 50
1000
0110
1100
0110
,  // measure 51
0110
0101
0101
0110
,  // measure 52
1001
0000
0000
0000
;
