#VERSION:0.83;
#TITLE:i wanna stay;
#SUBTITLE:;
#ARTIST:Brennen Cole;
#TITLETRANSLIT:;
#SUBTITLETRANSLIT:;
#ARTISTTRANSLIT:;
#GENRE:;
#ORIGIN:;
#CREDIT:;
#BANNER:;
#BACKGROUND:;
#PREVIEWVID:;
#JACKET:;
#CDIMAGE:;
#DISCIMAGE:;
#LYRICSPATH:;
#CDTITLE:;
#MUSIC:I Wanna Stay!.ogg;
#OFFSET:0.000000;
#SAMPLESTART:100.059883;
#SAMPLELENGTH:12.000000;
#SELECTABLE:YES;
#BPMS:0.000=134.000;
#STOPS:;
#DELAYS:;
#WARPS:;
#TIMESIGNATURES:0.000=4=4;
#TICKCOUNTS:0.000=4;
#COMBOS:0.000=1;
#SPEEDS:0.000=1.000=0.000=0;
#SCROLLS:0.000=1.000;
#FAKES:;
#LABELS:0.000=Song Start;
#BGCHANGES:;
#KEYSOUNDS:;
#ATTACKS:
;

//---------------dance-single - ----------------
#NOTEDATA:;
#CHARTNAME:;
#STEPSTYPE:dance-single;
#DESCRIPTION:;
#CHARTSTYLE:;
#DIFFICULTY:Hard;
#METER:11;
#RADARVALUES:0.542503,0.517225,0.673754,0.108889,0.000000,558.000000,459.000000,99.000000,16.000000,0.000000,0.000000,0.000000,0.000000,0.000000,0.542503,0.517225,0.673754,0.108889,0.000000,558.000000,459.000000,99.000000,16.000000,0.000000,0.000000,0.000000,0.000000,0.000000;
#CREDIT:;
#NOTES:
// measure 0
0000
0000
0000
0000
,  // measure 1
0000
0000
0000
0000
,  // measure 2
0010
2002
0000
3003
,  // measure 3
0001
0000
1000
0000
0001
0000
0100
0010
,  // measure 4
0001
0220
0000
0330
,  // measure 5
0010
0202
0000
0303
,  // measure 6
0010
0220
0000
0330
,  // measure 7
0001
0000
0100
0000
0010
0000
0100
0001
,  // measure 8
1000
0000
0110
0010
0001
1000
0001
0100
,  // measure 9
1000
0010
0011
0100
0001
0100
1000
0000
,  // measure 10
0101
0000
0101
0010
0001
1000
0001
0100
,  // measure 11
1000
0000
0001
0100
0010
0100
0001
0000
,  // measure 12
1000
0000
0110
0000
0001
0100
0001
0100
,  // measure 13
1000
0000
0110
0000
0001
1000
0001
0100
,  // measure 14
1000
0000
0110
0010
0001
0100
0001
0100
,  // measure 15
1010
0000
0110
0000
1000
0001
0100
0010
,  // measure 16
0101
0000
0010
0100
0010
0001
1100
0000
,  // measure 17
0100
0000
0010
0001
0100
0001
1100
0000
,  // measure 18
0100
0000
0010
0001
0100
0010
1001
0000
,  // measure 19
0010
0000
0001
0100
0001
0010
1100
0000
,  // measure 20
0110
0000
0100
0001
0010
0100
1001
0000
,  // measure 21
0100
0000
0010
0001
0100
0001
1100
0000
,  // measure 22
0100
0000
0010
0001
0100
0010
1001
0000
,  // measure 23
0100
0000
0010
0001
0100
0001
0110
0000
,  // measure 24
0101
0000
0010
0100
0001
0100
0001
0100
,  // measure 25
1000
0010
0100
0010
0001
0100
0001
0100
,  // measure 26
1000
0000
0010
0100
0010
0100
0001
0100
,  // measure 27
1000
0001
0010
0010
0100
0100
0100
0100
,  // measure 28
1001
0000
0100
0010
0001
0100
0001
0100
,  // measure 29
1001
0000
0010
0001
0100
0001
0010
0100
,  // measure 30
1001
0000
0010
0001
1000
0001
0100
0010
,  // measure 31
1100
0000
0101
0100
0010
0001
0100
0010
,  // measure 32
2002
3003
0202
0303
,  // measure 33
0010
0100
0010
0001
1000
0001
0100
0010
,  // measure 34
0220
0330
0202
0303
,  // measure 35
0010
0001
0100
0010
0001
0100
0001
0100
,  // measure 36
1010
0000
1010
0000
0010
0100
0001
1000
,  // measure 37
0100
0010
0100
0010
0001
0100
0001
0100
,  // measure 38
1000
0100
0010
0100
,  // measure 39
0001
0000
0100
0000
0010
0100
0001
0100
,  // measure 40
1001
0000
0010
0000
0001
1000
0001
0100
,  // measure 41
1001
0000
0010
0000
0001
0100
0001
0100
,  // measure 42
1001
0000
0010
0000
0100
0001
0100
0001
,  // measure 43
0110
0100
0010
0001
1000
0001
0100
0010
,  // measure 44
1010
0000
0100
0000
0010
0001
0100
0010
,  // measure 45
1001
0000
0100
0000
0010
0001
0100
0010
,  // measure 46
1001
0000
0010
0000
1000
0001
0100
0010
,  // measure 47
0110
0100
0010
0001
0100
0001
0100
0010
,  // measure 48
1001
0000
0010
0100
0001
0100
1001
0000
,  // measure 49
0101
0000
0010
0001
0100
0100
1100
0000
,  // measure 50
0101
0000
0010
0001
0100
0010
1001
0000
,  // measure 51
0110
0000
0100
0001
0100
0010
1001
0000
,  // measure 52
0110
0000
0010
0001
0100
0010
1001
0000
,  // measure 53
0110
0000
0010
0001
0100
0010
1001
0000
,  // measure 54
0110
0000
0010
0001
0100
0010
1001
0000
,  // measure 55
0110
0000
0100
0001
0010
0100
1001
0000
,  // measure 56
1001
0000
0000
0001
0100
0010
1001
0000
,  // measure 57
0101
0000
0000
0001
0100
0010
1001
0000
,  // measure 58
1001
0000
0000
0001
0100
0010
1001
0000
,  // measure 59
0101
0000
0100
0001
0100
0010
1001
0000
,  // measure 60
0101
0000
0010
0100
0001
0100
1000
0010
,  // measure 61
0001
1000
0001
0100
0011
0000
0101
0000
,  // measure 62
1010
0000
0000
0000
0001
0100
0010
0001
,  // measure 63
1000
0001
0100
0010
0101
0000
0101
0000
,  // measure 64
1001
0000
0000
0010
0001
0100
1000
0000
,  // measure 65
0001
0000
0100
0010
0001
0100
1000
0000
,  // measure 66
0010
0000
0001
0100
0001
0100
1000
0001
,  // measure 67
1100
0110
0110
0101
,  // measure 68
0010
0000
0001
0100
0001
1000
0100
0000
,  // measure 69
0001
0000
0010
0100
0010
0100
1000
0000
,  // measure 70
0010
0000
0001
0100
0001
0100
1000
0010
,  // measure 71
0110
0110
0101
0101
,  // measure 72
0110
0000
0100
0001
0100
0010
1001
0000
,  // measure 73
0110
0000
0010
0001
0100
0010
1001
0000
,  // measure 74
0110
0000
0010
0001
0100
0010
1001
0000
,  // measure 75
0101
0000
0010
0001
0100
0010
1001
0000
,  // measure 76
0101
0000
0010
0100
0001
1000
0101
0000
,  // measure 77
0110
0000
0100
0001
0100
0001
0101
0000
,  // measure 78
0110
0000
0001
0100
0001
1000
0011
0000
,  // measure 79
0110
0000
0010
0001
0100
0010
1001
0000
,  // measure 80
0101
0000
0000
0000
;
