#VERSION:0.83;
#TITLE:i wanna know;
#SUBTITLE:;
#ARTIST:Fish56octogan & Abi Flynn;
#TITLETRANSLIT:;
#SUBTITLETRANSLIT:;
#ARTISTTRANSLIT:;
#GENRE:;
#ORIGIN:;
#CREDIT:;
#BANNER:;
#BACKGROUND:;
#PREVIEWVID:;
#JACKET:;
#CDIMAGE:;
#DISCIMAGE:;
#LYRICSPATH:;
#CDTITLE:;
#MUSIC:Fish56Octagon, Abi Flynn - I Wanna Know (Official Visualiser).ogg;
#OFFSET:0.000000;
#SAMPLESTART:100.059883;
#SAMPLELENGTH:12.000000;
#SELECTABLE:YES;
#BPMS:0.000=130.000,
28.000=140.000,
32.000=130.000,
44.000=135.000,
60.000=132.000;
#STOPS:0.000=0.000;
#DELAYS:;
#WARPS:;
#TIMESIGNATURES:0.000=4=4;
#TICKCOUNTS:0.000=4;
#COMBOS:0.000=1;
#SPEEDS:0.000=1.000=0.000=0;
#SCROLLS:0.000=1.000;
#FAKES:;
#LABELS:0.000=Song Start;
#BGCHANGES:;
#KEYSOUNDS:;
#ATTACKS:
;

//---------------dance-single - ----------------
#NOTEDATA:;
#CHARTNAME:;
#STEPSTYPE:dance-single;
#DESCRIPTION:;
#CHARTSTYLE:;
#DIFFICULTY:Hard;
#METER:14;
#RADARVALUES:0.633453,0.713755,0.371257,0.010458,0.287594,848.000000,777.000000,71.000000,2.000000,0.000000,0.000000,0.000000,0.000000,0.000000,0.633453,0.713755,0.371257,0.010458,0.287594,848.000000,777.000000,71.000000,2.000000,0.000000,0.000000,0.000000,0.000000,0.000000;
#CREDIT:;
#NOTES:
// measure 0
0000
0000
0000
0000
,  // measure 1
0000
0000
0000
0000
,  // measure 2
0000
0000
0000
0000
,  // measure 3
0000
0000
0000
0000
1000
0001
0100
0010
,  // measure 4
0000
0100
0000
0000
0000
0001
0100
1000
,  // measure 5
0000
0000
0000
0000
,  // measure 6
0000
0100
0001
0100
1000
0001
0100
1000
,  // measure 7
0000
0100
0000
0000
0000
0000
0000
0000
0010
0000
0100
0000
0001
0000
0010
0000
,  // measure 8
0001
0100
1000
0000
0010
0001
0100
0000
0010
0001
0100
0000
0001
0100
1000
0000
,  // measure 9
0010
0000
0100
0001
1000
0001
0010
0100
,  // measure 10
0001
0100
0010
0000
0001
0100
0010
0000
0001
0100
0010
0000
0100
0001
1000
0000
,  // measure 11
0100
0000
1000
0001
0010
0000
0100
0000
,  // measure 12
0001
0100
1000
0000
0010
0100
0001
0000
1000
0100
0001
0000
0010
0100
0001
0000
,  // measure 13
0100
0000
0001
1000
0100
0001
1000
0100
,  // measure 14
0001
0010
0100
0000
0001
1000
0100
0000
0001
0100
0010
0000
0100
0001
0010
0000
,  // measure 15
0020
0000
0000
0000
0030
0010
0010
0010
,  // measure 16
1000
0100
0001
0000
0000
0000
0010
0000
0000
0100
0000
0000
0001
0000
0000
0000
,  // measure 17
0200
0000
0000
0000
0300
0000
1000
0000
0000
0001
0000
0000
0010
0000
0000
0000
,  // measure 18
1000
0100
0001
0000
0000
0000
0010
0000
0000
0100
0000
0000
0001
0000
0000
0000
,  // measure 19
0001
0100
1000
0000
0000
0000
0010
0000
0000
0100
0000
0000
0001
0000
0000
0000
,  // measure 20
1000
0001
0010
0000
0000
0000
0001
0000
0000
0100
0000
0000
1000
0000
0000
0000
,  // measure 21
1001
0000
0000
0000
0000
0000
0100
0000
0000
0010
0000
0000
0001
0000
0000
0000
,  // measure 22
0001
0100
1000
0000
0000
0000
0010
0000
0100
0001
0010
0000
0000
0000
0100
0000
,  // measure 23
0001
1000
0100
0000
0001
0100
0001
0000
0010
0100
0001
0000
1000
0100
0001
0000
,  // measure 24
0100
0000
0000
0000
0010
0000
0000
0000
0100
0001
0000
1000
0000
0100
0001
0100
,  // measure 25
0001
0100
0001
0000
1000
0000
0100
0000
0001
0000
0010
0000
0001
0000
0100
0000
,  // measure 26
1000
0100
0010
0001
1000
0001
0100
0010
,  // measure 27
1000
0100
0001
0000
0010
0000
0001
0000
0100
0000
0001
0000
0100
0000
0010
0000
,  // measure 28
0001
0100
1000
0000
0010
0000
0001
0000
1000
0000
0001
0000
0100
0000
0010
0000
,  // measure 29
0001
0100
1000
0000
0100
0000
0010
0000
0001
0000
1000
0000
0001
0000
0100
0000
,  // measure 30
1000
0100
0001
0100
0001
1000
0001
0010
,  // measure 31
0100
0001
0100
0000
0010
0000
0100
0000
0001
0000
1000
0000
0001
0000
0010
0000
,  // measure 32
0100
0010
0001
0000
0100
0000
0010
0000
0001
0000
1000
0000
0001
0000
0100
0000
,  // measure 33
1000
0100
0001
0000
0010
0000
0001
0000
0100
0000
0010
0000
0001
0000
0100
0000
,  // measure 34
0001
0100
0010
0001
1000
0001
0100
0010
,  // measure 35
0001
0100
1000
0000
0010
0000
0001
0000
0100
0000
0010
0000
0001
0000
0100
0000
,  // measure 36
0001
0100
0010
0001
1000
0001
0010
0100
,  // measure 37
0001
0100
1000
0000
0010
0000
0001
0000
0100
0000
0010
0000
0001
0000
0100
0000
,  // measure 38
0001
0100
0010
0001
1000
0001
0100
0010
,  // measure 39
0001
0100
1000
0000
0001
0000
0100
0000
0010
0000
0001
0000
1000
0000
0001
0000
,  // measure 40
0100
0010
0001
1000
0001
0100
0010
0100
,  // measure 41
1001
0001
0010
0100
0101
0001
0100
0010
,  // measure 42
1001
0010
1001
1001
1001
0001
0100
0010
,  // measure 43
1001
0001
0100
0010
1001
0001
0100
0010
,  // measure 44
1001
0100
0010
1001
1001
0001
0100
0010
,  // measure 45
1001
0001
0100
0010
1001
0001
0100
0010
,  // measure 46
1001
0001
0101
0101
0101
0001
0100
0010
,  // measure 47
1001
0001
0100
0010
1001
0001
0100
0010
,  // measure 48
1001
0000
0010
0000
0001
0000
0100
0000
0010
0001
0100
0010
0001
1000
0001
0100
,  // measure 49
1000
0000
0000
0000
0000
0001
0100
1000
,  // measure 50
0000
0000
0000
0000
0000
0000
0000
0000
0100
0001
0010
0000
0100
0001
0100
0000
,  // measure 51
0010
0001
0100
0010
0001
1000
0001
0100
,  // measure 52
1000
0010
0001
0100
0010
0001
0100
0001
,  // measure 53
0100
0010
0001
1000
0001
0100
0010
0001
,  // measure 54
1000
0001
0100
0010
0001
0100
0001
0100
,  // measure 55
0010
0001
1000
0001
0100
0010
0001
1000
,  // measure 56
0001
0000
0100
0000
0011
0000
0001
0000
1001
0000
0001
0000
0100
0001
0010
0000
,  // measure 57
0001
0100
1000
0000
0000
0000
0100
0000
0000
0001
0010
0000
0100
0000
0001
0000
,  // measure 58
1000
0000
0100
0001
0010
0010
0001
0100
,  // measure 59
1000
0100
0001
0000
0000
0000
0010
0000
0000
0001
0010
0000
0100
0000
0001
0000
,  // measure 60
1000
0010
0100
0000
0001
0000
0100
0000
0001
0010
0000
0000
0100
0000
0000
0000
,  // measure 61
1000
0100
0001
0000
0100
0000
0010
0000
0000
0001
0010
0000
0100
0000
0001
0000
,  // measure 62
1000
0000
0001
0100
0001
1000
0100
0010
,  // measure 63
0100
0001
0010
0000
0000
0000
0010
0000
0100
0000
0001
0000
0010
0000
0100
0000
,  // measure 64
1000
0100
0001
0000
0110
0000
0000
0000
0101
0000
0001
0000
0100
0001
0100
0001
,  // measure 65
0010
0100
0001
0000
0000
0000
0001
0000
0000
0100
0000
0000
0010
0000
0000
0000
,  // measure 66
1001
0000
0000
0000
0000
0000
0001
0000
0000
0100
0000
0000
1000
0000
0000
0000
,  // measure 67
0010
0001
0100
0000
0000
0000
0001
0000
0000
0100
0000
0000
1000
0000
0000
0000
,  // measure 68
0001
0010
0100
0000
0000
0000
0001
0000
0000
0010
0000
0000
0100
0000
0000
0000
,  // measure 69
0001
0100
1000
0000
0000
0000
0100
0000
0000
0010
0000
0000
0001
0000
0000
0000
,  // measure 70
0001
0100
1000
0000
0000
0000
0100
0000
0000
0010
0000
0000
0001
0000
0000
0000
,  // measure 71
0001
0100
1000
0000
0110
0000
0010
0000
0001
1000
0100
0000
0101
0000
0001
0000
,  // measure 72
0001
0100
0010
0000
0001
0100
0010
0000
0001
0100
1000
0000
0001
0100
0010
0000
,  // measure 73
0101
0000
0000
0000
0110
0000
0000
0000
0100
0001
0000
0010
0100
0000
0001
1000
,  // measure 74
0100
0001
0010
0000
1000
0100
0000
0001
0010
0100
0001
0000
0001
0000
0100
0000
,  // measure 75
1000
0000
0100
0010
0001
1000
0001
0100
,  // measure 76
1000
0000
0000
0000
0000
0100
0001
0100
,  // measure 77
1000
0000
0100
0010
0001
0000
0001
0000
,  // measure 78
1000
0100
0001
0000
1000
0000
0100
0000
0000
0001
0010
0000
0001
0000
0100
0000
,  // measure 79
1000
0000
0100
0010
0001
1000
0001
0100
,  // measure 80
1000
0100
0001
0000
0000
0000
0010
0000
0001
0000
0010
0000
0100
0000
0001
0000
,  // measure 81
1000
0100
0001
0000
1001
0000
0000
0000
0001
0100
0001
0100
0100
0001
0100
0001
,  // measure 82
0010
0100
0001
0000
1000
0000
0100
0000
0001
0000
0010
0000
0100
0000
0001
0000
,  // measure 83
1000
0001
0010
0100
0001
1000
0001
0010
,  // measure 84
0010
0001
0100
0000
0010
0000
0001
0000
1000
0000
0001
0000
0100
0000
0010
0000
,  // measure 85
0001
0100
1000
0000
0100
0000
0010
0000
0001
0000
1000
0000
0001
0000
0100
0000
,  // measure 86
1000
0010
0100
0000
0001
0000
1000
0000
0001
0000
0010
0000
0100
0000
0001
0000
,  // measure 87
1000
0001
0010
0100
0001
0100
0001
0100
,  // measure 88
1000
0100
0001
0000
0010
0000
0001
0000
1000
0000
0001
0000
0100
0000
0010
0000
,  // measure 89
0001
0100
1000
0000
0001
0000
0100
0000
0010
0000
0100
0010
0001
0010
0100
0000
,  // measure 90
1001
0001
0100
1000
1001
0010
0100
0001
,  // measure 91
1001
0010
0101
0101
0101
0001
0100
0010
,  // measure 92
1001
0100
0001
1000
0101
0010
0001
0100
,  // measure 93
1001
0100
0010
1001
1001
0001
0100
0010
,  // measure 94
1001
0010
0010
0100
0101
0001
0100
0010
,  // measure 95
1001
0010
0101
0101
0101
0010
0100
0010
,  // measure 96
1001
0001
0100
0010
1001
0001
0100
0010
,  // measure 97
0101
0000
0100
0000
0010
0000
0101
0000
0100
0010
0100
0001
1000
0001
0010
0100
,  // measure 98
1000
0000
0101
0000
,  // measure 99
1010
0000
1010
1010
1010
0001
0100
0010
,  // measure 100
1001
0000
0101
0000
,  // measure 101
1001
0000
0000
1001
1001
0001
0100
0010
,  // measure 102
1001
0000
0101
0000
,  // measure 103
1001
0000
1001
1001
1001
0001
0100
0010
,  // measure 104
1001
0000
1001
0000
,  // measure 105
1001
0000
0000
0000
;
