#VERSION:0.83;
#TITLE:i know where mark chen lives;
#SUBTITLE:;
#ARTIST:Joyce Manor;
#TITLETRANSLIT:;
#SUBTITLETRANSLIT:;
#ARTISTTRANSLIT:;
#GENRE:;
#ORIGIN:;
#CREDIT:;
#BANNER:;
#BACKGROUND:;
#PREVIEWVID:;
#JACKET:;
#CDIMAGE:;
#DISCIMAGE:;
#LYRICSPATH:;
#CDTITLE:;
#MUSIC:Joyce Manor - I Know Where Mark Chen Lives.ogg;
#OFFSET:0.000000;
#SAMPLESTART:0.059886;
#SAMPLELENGTH:12.000000;
#SELECTABLE:YES;
#BPMS:0.000=156.000;
#STOPS:0.000=0.200;
#DELAYS:;
#WARPS:;
#TIMESIGNATURES:0.000=4=4;
#TICKCOUNTS:0.000=4;
#COMBOS:0.000=1;
#SPEEDS:0.000=1.000=0.000=0;
#SCROLLS:0.000=1.000;
#FAKES:;
#LABELS:0.000=Song Start;
#BGCHANGES:0.000=Joyce Manor - I Know Where Mark Chen Lives.mp4=1.000=0=0=1=====,
99999=-nosongbg-=1.000=0=0=0 // don't automatically add -songbackground-
;
#KEYSOUNDS:;
#ATTACKS:
;

//---------------dance-single - ----------------
#NOTEDATA:;
#CHARTNAME:;
#STEPSTYPE:dance-single;
#DESCRIPTION:;
#CHARTSTYLE:;
#DIFFICULTY:Hard;
#METER:11;
#RADARVALUES:0.414988,0.554544,0.081701,0.009078,0.000000,320.000000,311.000000,9.000000,1.000000,0.000000,0.000000,0.000000,0.000000,0.000000,0.414988,0.554544,0.081701,0.009078,0.000000,320.000000,311.000000,9.000000,1.000000,0.000000,0.000000,0.000000,0.000000,0.000000;
#CREDIT:;
#NOTES:
// measure 0
0000
0000
0000
0000
,  // measure 1
0000
0000
0000
0000
,  // measure 2
0000
0000
0000
0000
,  // measure 3
0000
0000
0000
0000
0000
0100
0000
0100
,  // measure 4
0010
0000
0100
0000
0000
0001
1000
0100
,  // measure 5
0010
0001
0010
0000
0000
0001
0000
0100
,  // measure 6
1000
0100
0001
0010
0010
0100
0010
0001
,  // measure 7
1000
0001
0100
0000
0000
0100
0000
0001
,  // measure 8
0010
0000
0100
0000
0000
0100
0010
0001
,  // measure 9
0100
0001
1000
0100
0000
0010
0001
0100
,  // measure 10
0000
0001
1000
0100
0010
0000
0100
0001
,  // measure 11
0100
0010
0100
0000
,  // measure 12
1001
0000
0000
0000
0100
0001
0000
0000
,  // measure 13
0001
0000
0010
0100
0000
0001
0000
0010
,  // measure 14
0000
0001
0000
0100
0000
0010
0000
0100
,  // measure 15
0001
0000
1000
0100
0000
0000
0000
0000
,  // measure 16
0001
0000
0100
0000
0010
0100
0000
0000
,  // measure 17
0001
0000
0010
0100
0000
0100
0001
1000
,  // measure 18
0000
0100
0000
0010
0000
0001
0000
0100
,  // measure 19
1000
0000
0001
0100
0000
0100
0000
0001
,  // measure 20
1000
0100
0001
0000
0000
0010
0001
0100
,  // measure 21
0001
0100
1000
0000
0000
0000
0100
0001
,  // measure 22
1000
0000
0010
0000
0001
0000
0100
0100
,  // measure 23
0010
0100
0000
0001
0000
0001
1000
0100
,  // measure 24
0001
1000
0100
0000
0000
0010
0001
0100
,  // measure 25
0001
1000
0100
0010
0000
0100
0000
0010
,  // measure 26
0100
0001
0010
0100
0001
0100
0001
1000
,  // measure 27
0100
0010
0100
0000
0001
0000
0000
0000
,  // measure 28
1001
0000
0000
0000
0100
0001
0000
0000
,  // measure 29
1000
0000
0100
0001
0000
0100
0001
1000
,  // measure 30
0000
0001
0000
0100
0000
0010
0000
0100
,  // measure 31
0001
0000
0010
0100
0000
0000
0000
0000
,  // measure 32
1001
0000
0001
0000
1000
0100
0000
0000
,  // measure 33
0010
0000
0100
0001
0000
1000
0100
0001
,  // measure 34
0000
0010
0000
0100
0000
0001
0000
0100
,  // measure 35
0010
0000
0100
0001
0000
0000
0000
0000
,  // measure 36
1000
0100
0010
0001
,  // measure 37
0100
0000
0000
0000
0010
0000
0100
0001
,  // measure 38
0010
1000
0100
0000
0001
0100
0010
0000
,  // measure 39
0100
0010
0001
1000
0001
0100
1000
0000
,  // measure 40
0001
0100
0010
0001
,  // measure 41
1000
0000
0001
0000
0100
0000
0100
0001
,  // measure 42
0010
0001
0100
0010
,  // measure 43
1001
0000
0000
1001
0000
0000
1001
0000
,  // measure 44
0010
0001
0100
1000
,  // measure 45
0001
0000
0100
0000
0001
0000
0010
0100
,  // measure 46
0001
0100
1000
0000
0001
0100
0001
0000
,  // measure 47
0100
0010
0001
1000
0001
0100
1000
0000
,  // measure 48
0010
0001
0100
1000
,  // measure 49
0001
0000
0100
0000
0010
0000
1000
0100
,  // measure 50
0001
0010
1000
0001
0100
0010
0001
0100
,  // measure 51
0001
0100
0010
0001
1000
0001
0100
0010
,  // measure 52
1001
0000
0000
0000
0100
0001
0000
0000
,  // measure 53
1000
0000
0100
0001
0000
1000
0100
0001
,  // measure 54
0000
0100
0000
0010
0000
0100
0000
0001
,  // measure 55
0010
0000
0100
0002
0000
0000
0000
0003
,  // measure 56
0010
0000
0001
0000
0100
1000
0000
0000
,  // measure 57
0010
0000
0001
0100
0000
0001
0100
1000
,  // measure 58
0000
0001
0000
0100
0000
0010
0000
0100
,  // measure 59
0001
0000
1000
0100
0000
0000
0000
0000
,  // measure 60
0100
0000
0000
0000
0010
0100
0000
0000
,  // measure 61
0001
0000
0010
0100
0000
0001
1000
0100
,  // measure 62
0000
0100
0000
0010
0000
0001
0000
0100
,  // measure 63
1000
0000
0001
0100
0000
0000
0000
0000
,  // measure 64
0001
0000
0100
0000
0001
0010
0000
0000
,  // measure 65
0100
0000
0001
1000
0000
0100
0001
0100
,  // measure 66
0000
0010
0000
0100
0000
0001
0000
1000
,  // measure 67
0100
0000
0001
0010
0000
0000
1001
1001
;
