#TITLE:i dont care;
#SUBTITLE:;
#ARTIST:Crunkz;
#TITLETRANSLIT:;
#SUBTITLETRANSLIT:;
#ARTISTTRANSLIT:;
#GENRE:;
#CREDIT:;
#BANNER:;
#BACKGROUND:;
#LYRICSPATH:;
#CDTITLE:;
#MUSIC:Crunkz - I Don't Care (Official Audio).ogg;
#OFFSET:0.000000;
#SAMPLESTART:100.059883;
#SAMPLELENGTH:12.000000;
#SELECTABLE:YES;
#BPMS:0.000000=128.000000
;
#STOPS:0.000000=0.900000
;
#BGCHANGES:;
#KEYSOUNDS:;
#ATTACKS:;

//---------------dance-single - ----------------
#NOTES:
     dance-single:
     :
     Hard:
     12:
     0.476788,0.581631,0.357011,0.205552,0.321851,617.000000,551.000000,66.000000,38.000000,0.000000,0.000000,0.476788,0.581631,0.357011,0.205552,0.321851,617.000000,551.000000,66.000000,38.000000,0.000000,0.000000:
// measure 0
0000
0000
0000
0000
,  // measure 1
0000
0000
0000
0000
,  // measure 2
0000
0000
0000
0000
,  // measure 3
0000
0000
0000
0000
,  // measure 4
0001
0100
0001
1000
0100
0000
0100
0010
,  // measure 5
0001
0100
0001
1000
0110
0000
0000
0000
,  // measure 6
1000
0001
0100
0010
0101
0000
0110
0000
,  // measure 7
1001
0000
0100
0001
,  // measure 8
2002
0000
0000
0000
3003
0000
0100
0010
,  // measure 9
0220
0000
0000
0000
0000
0000
0330
0010
,  // measure 10
0001
1000
0001
0100
1000
0000
0001
0000
,  // measure 11
0200
0300
0010
0001
,  // measure 12
0220
0000
0000
0000
0330
0000
0100
0010
,  // measure 13
2002
0000
0000
0000
0000
0000
3003
0001
,  // measure 14
0010
0100
0001
1000
0110
0000
0110
0000
,  // measure 15
0202
0000
0303
0001
0110
0000
1001
0000
,  // measure 16
2002
0000
0000
0000
,  // measure 17
0000
0000
3003
0010
0110
0000
0101
0000
,  // measure 18
2200
0000
0000
0000
,  // measure 19
0000
3300
0101
0110
,  // measure 20
0202
0000
0000
0000
,  // measure 21
0000
0000
0303
0100
0101
0000
0110
0000
,  // measure 22
2002
0000
0000
0000
,  // measure 23
0000
0000
3003
0100
0101
0000
0101
0000
,  // measure 24
0100
0000
0010
0000
0100
0000
0001
0000
1000
0000
0000
0001
0000
0000
0100
0001
,  // measure 25
0010
0100
0001
0000
0001
0000
1000
0000
0001
0000
0000
0100
0000
0000
0001
0000
,  // measure 26
0001
0000
0000
0000
0100
0000
0010
0000
0001
0000
0000
0001
0000
0000
0100
0001
,  // measure 27
0010
0100
0001
0000
1000
0000
0010
0000
0100
0000
0000
0001
0000
0000
0010
0000
,  // measure 28
0001
0000
0100
0000
1000
0000
0001
0000
0100
0000
0000
0010
0000
0000
1000
0100
,  // measure 29
0001
0100
0010
0000
0001
0000
0010
0000
0100
0000
0000
0001
0000
0000
0010
0000
,  // measure 30
0100
0000
0001
0000
0010
0000
0100
0000
0001
0000
0000
1000
0000
0000
0100
0001
,  // measure 31
0010
0100
0001
0000
1000
0000
0100
0000
0001
0000
0000
0010
0000
0000
0100
0000
,  // measure 32
0001
0000
0100
0000
1000
0000
0001
0000
0100
0000
0000
0010
0000
0000
1000
0100
,  // measure 33
0001
0100
0001
0000
0100
0000
0010
0000
0001
0000
0000
0100
0000
0000
1000
0000
,  // measure 34
0010
0000
0001
0000
0100
0000
0010
0000
0001
0000
0000
0100
0000
0000
0010
0100
,  // measure 35
0001
1000
0010
0000
0001
0000
0010
0000
0100
0000
0000
0001
0000
0000
0010
0000
,  // measure 36
0100
0000
0001
0000
0010
0000
0100
0000
0001
0000
0000
1000
0000
0000
0100
0001
,  // measure 37
0010
0100
0001
0000
1000
0000
0100
0000
0001
0000
0000
0100
0000
0000
0001
0000
,  // measure 38
0010
0000
0100
0000
0001
0000
1000
0000
0001
0000
0000
0010
0000
0000
0001
0100
,  // measure 39
0001
0100
0010
0000
0100
0000
0010
0001
1000
0100
0000
0001
0000
0010
0100
0000
,  // measure 40
0001
0000
0100
0000
0001
0000
0010
0100
0001
0000
0000
1000
0000
0000
0100
0001
,  // measure 41
0010
0001
0100
0000
0010
0000
0100
0001
1000
0000
0000
0100
0000
0000
0001
0010
,  // measure 42
0100
0000
0001
0000
0010
0000
0001
0100
1000
0000
0000
0010
0000
0000
0100
0001
,  // measure 43
0010
0100
0001
0000
1000
0000
0100
0001
0010
0000
0000
0100
0000
0000
0001
1000
,  // measure 44
0100
0000
0001
0000
0010
0000
0001
0100
0010
0000
0000
0001
0000
0000
0010
0100
,  // measure 45
0001
1000
0100
0000
0001
0000
0010
0100
0001
0000
0000
1000
0000
0000
0100
0001
,  // measure 46
0010
0000
0100
0000
0010
0000
0001
1000
0100
0000
0000
0001
0000
0000
0010
0100
,  // measure 47
0001
1000
0100
0000
0001
0000
0010
0100
0001
1000
0000
0100
0000
0001
0010
0000
,  // measure 48
0010
0000
0001
0000
0100
0000
0000
0001
,  // measure 49
1000
0100
0000
0001
0010
0000
0000
1000
,  // measure 50
1001
0110
0101
0110
,  // measure 51
0101
0000
0100
0000
0010
0000
1000
0001
,  // measure 52
0100
0000
0101
0000
0110
0000
0001
0100
,  // measure 53
0001
0100
0001
1000
0100
0000
0100
0010
,  // measure 54
0001
1000
0001
0100
1000
0000
0100
0000
,  // measure 55
0010
0000
0000
0001
0100
0000
1000
0000
,  // measure 56
2002
0000
0000
0000
3003
0000
0010
0001
,  // measure 57
0220
0000
0000
0000
0000
0000
0330
0001
,  // measure 58
1000
0001
0100
0010
0100
0000
0100
0000
,  // measure 59
2002
3003
0101
0110
,  // measure 60
0220
0000
0000
0000
0330
0000
0100
0001
,  // measure 61
2002
0000
0000
0000
0000
0000
3003
0001
,  // measure 62
0100
0001
0100
0010
1100
0000
0110
0000
,  // measure 63
0101
0000
0000
0001
1001
0000
0110
0000
,  // measure 64
2002
0000
0000
0000
,  // measure 65
0000
0000
3003
0001
1001
0000
0110
0000
,  // measure 66
0202
0000
0000
0000
,  // measure 67
0000
0303
0101
0110
,  // measure 68
2002
0000
0000
0000
,  // measure 69
0000
0000
3003
0010
0101
0000
0110
0000
,  // measure 70
2002
0000
0000
0000
,  // measure 71
0000
0000
3003
0001
1001
0000
0110
0000
,  // measure 72
0001
0000
1000
0000
0000
0000
0100
0000
0001
0000
0000
0010
0000
0000
0001
0100
,  // measure 73
1000
0000
0100
0000
0000
0000
0010
0000
0001
0000
0000
1000
0000
0000
0110
0000
,  // measure 74
1001
0000
0001
0000
0000
0000
1000
0000
0100
0000
0000
0001
0000
0000
0010
0100
,  // measure 75
0001
0000
1000
0000
0000
0000
0100
0000
0010
0000
0000
0001
0000
0000
0010
0000
,  // measure 76
1001
0000
0001
0000
0000
0000
1000
0000
1001
0000
0000
0100
0000
0000
0010
0000
,  // measure 77
1001
0000
0001
0000
0000
0000
1000
0000
1001
0000
0000
0010
0000
0000
0100
0000
,  // measure 78
0110
0001
1001
0010
0110
0001
1001
0010
,  // measure 79
0100
0001
1000
0000
0000
0000
0010
0000
0100
0000
0000
0001
0000
0000
0010
0000
,  // measure 80
1000
0000
0100
0000
0001
0000
0010
0000
0100
0000
0000
0001
0000
0000
1000
0100
,  // measure 81
0001
0010
0100
0000
0100
0000
0010
0000
0001
0000
0000
1000
0000
0000
0100
0000
,  // measure 82
0001
0000
0100
0000
1000
0000
0001
0000
0100
0000
0000
0010
0000
0000
0100
0001
,  // measure 83
0010
0100
0001
0000
0001
0000
0100
0000
0010
0000
0000
0001
0000
0000
0100
0000
,  // measure 84
1000
0000
0010
0000
0001
0000
0100
0000
1000
0000
0000
0001
0000
0000
0010
0100
,  // measure 85
0001
1000
0100
0000
0001
0000
0010
0000
0001
0000
0000
0100
0000
0000
1000
0000
,  // measure 86
0001
0000
1000
0000
0001
0000
0100
0000
0010
0000
0000
0001
0000
0000
0100
0010
,  // measure 87
0001
0010
0100
0000
0100
0000
0001
0000
0010
0000
0000
0001
0000
0010
0001
0000
,  // measure 88
0001
0000
0100
0000
0010
0000
0001
0100
1000
0000
0000
0010
0000
0000
0001
1000
,  // measure 89
0100
0010
0100
0000
0010
0000
0001
1000
0100
0000
0000
0001
0000
0000
0010
0100
,  // measure 90
0001
0000
1000
0000
0100
0000
0001
0010
0100
0000
0000
0001
0000
0000
0010
0001
,  // measure 91
0100
0010
0100
0000
0001
0000
1000
0100
0001
0000
0000
0010
0000
0000
0001
0100
,  // measure 92
0001
0000
1000
0000
0100
0000
0001
0010
0100
0000
0000
0001
0000
0000
0010
0001
,  // measure 93
0100
0010
0001
0000
1000
0000
0100
0001
0010
0000
0000
0100
0000
0000
0001
1000
,  // measure 94
0100
0000
0001
0000
0010
0000
0100
0001
1000
0000
0000
0010
0000
0000
0100
0001
,  // measure 95
1000
0001
0010
0000
0010
0000
0001
1000
0010
0000
0001
0100
0000
0001
2000
0000
,  // measure 96
0000
0000
0000
0000
,  // measure 97
0000
0000
0000
3000
;
