#VERSION:0.83;
#TITLE:i codemn;
#SUBTITLE:;
#ARTIST:The Kid Laroi;
#TITLETRANSLIT:;
#SUBTITLETRANSLIT:;
#ARTISTTRANSLIT:;
#GENRE:;
#ORIGIN:;
#CREDIT:;
#BANNER:;
#BACKGROUND:;
#PREVIEWVID:;
#JACKET:;
#CDIMAGE:;
#DISCIMAGE:;
#LYRICSPATH:;
#CDTITLE:;
#MUSIC:I CONDEMN.ogg;
#OFFSET:0.000000;
#SAMPLESTART:100.059883;
#SAMPLELENGTH:12.000000;
#SELECTABLE:YES;
#BPMS:0.000=152.000;
#STOPS:0.000=0.400;
#DELAYS:;
#WARPS:;
#TIMESIGNATURES:0.000=4=4;
#TICKCOUNTS:0.000=4;
#COMBOS:0.000=1;
#SPEEDS:0.000=1.000=0.000=0;
#SCROLLS:0.000=1.000;
#FAKES:;
#LABELS:0.000=Song Start;
#BGCHANGES:;
#KEYSOUNDS:;
#ATTACKS:
;

//---------------dance-single - ----------------
#NOTEDATA:;
#CHARTNAME:;
#STEPSTYPE:dance-single;
#DESCRIPTION:;
#CHARTSTYLE:;
#DIFFICULTY:Hard;
#METER:13;
#RADARVALUES:0.573816,0.616877,0.140199,0.042060,0.203289,573.000000,553.000000,20.000000,6.000000,0.000000,0.000000,0.000000,0.000000,0.000000,0.573816,0.616877,0.140199,0.042060,0.203289,573.000000,553.000000,20.000000,6.000000,0.000000,0.000000,0.000000,0.000000,0.000000;
#CREDIT:;
#NOTES:
// measure 0
0000
0000
0000
0000
,  // measure 1
0000
0000
0000
0000
,  // measure 2
0000
0000
0000
0000
,  // measure 3
0000
0000
0000
0000
,  // measure 4
0001
0100
0010
0001
,  // measure 5
1000
0001
0100
0010
,  // measure 6
0010
0100
0001
1000
0001
0000
0010
0100
,  // measure 7
0001
1000
0001
0010
0100
0001
0010
0000
,  // measure 8
0010
0000
0000
0000
0000
0000
1000
0001
0100
0000
0010
0100
0001
0000
0100
0000
,  // measure 9
0001
0000
0000
0000
0000
0000
1000
0100
0001
0000
0010
0000
0100
0000
0001
0000
,  // measure 10
0010
0000
0000
0000
0000
0000
0001
1000
0100
0000
0010
0000
0001
0000
0100
0000
,  // measure 11
1000
0000
0000
0100
0010
0100
0001
0100
,  // measure 12
1000
0000
0000
0000
0100
0001
1000
0001
0010
0000
0100
0000
0001
0000
0100
0000
,  // measure 13
0010
0100
0010
0010
0100
0001
0001
0100
,  // measure 14
1000
0000
0100
0010
0100
0000
0100
0000
,  // measure 15
0010
0000
0001
0000
1000
0100
0000
0000
0100
0000
0010
0000
0100
0001
0010
0000
,  // measure 16
1000
0000
0110
0000
1000
0001
0100
0100
,  // measure 17
0010
0100
0010
0001
1000
0001
0100
0000
,  // measure 18
1001
0000
0100
0010
0001
0100
1000
0010
,  // measure 19
0100
0001
0000
1000
0000
0100
0000
0000
0010
0000
0100
0000
0001
0000
0100
0000
,  // measure 20
1000
0010
0001
0100
1000
0000
0100
0001
,  // measure 21
0010
0100
0000
0001
0000
0100
0010
0000
0100
0000
0001
0000
0100
0000
0010
0000
,  // measure 22
0100
0000
0010
0000
0100
0000
0001
0000
1000
0000
0100
0000
0010
0000
0000
0100
,  // measure 23
0000
0010
0001
0100
0001
0100
1000
0100
,  // measure 24
0000
0000
0001
0100
0010
0001
0100
0001
,  // measure 25
0100
0010
0001
0100
0001
1000
0100
0000
,  // measure 26
0000
0010
0001
0100
0010
0001
0100
0001
,  // measure 27
0100
0010
0100
0001
0100
1000
0100
0000
,  // measure 28
0000
0000
0100
0001
0100
0010
0001
1000
,  // measure 29
0001
0000
0100
0000
0010
0000
0100
0000
0001
0010
1000
0000
0100
0000
0000
0000
,  // measure 30
0100
0000
0000
0001
0000
0000
0010
0000
0001
0000
0100
0000
1000
0000
0100
0000
,  // measure 31
0010
0000
0000
0000
0100
0000
0010
0000
1000
0000
0100
0001
0000
0010
0100
0000
,  // measure 32
0001
0000
0000
0000
0000
0000
0000
0010
0100
0001
0000
1000
0100
0000
0100
0000
,  // measure 33
0010
0000
0100
0010
0001
0000
0100
0000
,  // measure 34
2002
0000
3003
0010
0100
0001
0100
0010
,  // measure 35
0100
0001
0100
1000
0110
0000
0110
0000
,  // measure 36
0110
0000
0000
0000
0010
0000
0100
0000
0001
0000
1000
0000
0110
0000
0000
0001
,  // measure 37
0010
0100
0001
0100
1000
0000
0010
0000
,  // measure 38
0100
0000
0000
0000
0010
0000
0001
0000
1000
0100
0000
0000
0010
0000
0000
0100
,  // measure 39
0001
0000
0000
0000
0100
0000
0000
0010
0100
0000
0000
0000
0001
0000
0000
0000
,  // measure 40
1000
0000
0000
0000
0000
0000
0100
0000
0001
1000
0100
0001
0010
0000
0100
0000
,  // measure 41
1000
0000
0001
1000
0100
0000
0010
0000
,  // measure 42
0001
0000
0100
0010
0001
1000
0001
0100
,  // measure 43
1000
0001
0010
0100
1001
0000
1001
0000
,  // measure 44
1001
0000
0000
0000
0010
0000
0001
0000
0100
0000
0010
0000
1000
0000
0000
0100
,  // measure 45
0001
0100
0010
0100
0001
0000
1000
0000
,  // measure 46
0100
0000
0000
0000
0010
0000
0001
0000
1000
0100
0000
0000
0010
0000
0000
0001
,  // measure 47
0100
0000
0000
0000
0010
0000
0000
0001
0100
0000
0000
0000
0100
0000
0000
0000
,  // measure 48
0010
0000
0000
0100
0001
0010
0100
0001
,  // measure 49
0100
0010
1000
0010
0001
0000
0100
0000
,  // measure 50
0110
0000
0100
0010
0001
1000
0001
0100
,  // measure 51
1000
0000
0000
0100
0000
0000
0001
0000
0100
0000
0000
0000
0010
0000
0000
0000
,  // measure 52
0000
0000
0010
0100
0001
1000
0100
0001
,  // measure 53
0010
0010
0101
0101
,  // measure 54
0101
0000
0000
0000
0100
0000
0010
0000
1000
0100
0000
0001
0000
0010
0000
0000
,  // measure 55
0010
0001
1000
0001
0100
0000
0101
0000
,  // measure 56
0202
0000
0303
0000
0001
0100
0010
0001
,  // measure 57
1000
0010
0001
0000
0100
0000
0010
0000
0001
0000
0100
0000
0001
0000
0100
0000
,  // measure 58
1000
0010
0100
0010
0100
1000
0100
0010
,  // measure 59
0100
0010
0100
0010
0100
1000
0100
0010
,  // measure 60
0100
0001
0100
0010
0001
0100
0001
0100
,  // measure 61
0010
0000
0001
0000
0100
0000
0010
0000
0001
0010
0100
0000
1000
0000
0100
0000
,  // measure 62
0010
0100
0001
0000
0100
0000
0001
0000
0100
0000
0010
0000
0100
0000
0001
0000
,  // measure 63
0100
0000
0010
0000
0001
0000
0100
0000
0001
0000
0100
0000
0010
0100
0001
0010
,  // measure 64
1000
0100
0000
0000
0000
0000
0000
0100
,  // measure 65
0001
0000
0000
0000
0000
0000
0000
1000
,  // measure 66
0000
0000
0000
0000
0000
0000
0000
0010
,  // measure 67
0100
0000
0000
0000
0000
0000
0000
0001
0100
0000
0000
0010
0100
0000
0000
0000
,  // measure 68
0010
0000
0000
0000
0100
0000
0001
0000
1000
0000
0000
0100
0001
0000
0000
0100
,  // measure 69
1000
0000
0000
0100
0010
0001
0100
0000
,  // measure 70
1000
0000
0000
0010
0100
0000
0000
0001
0010
0000
0001
0000
0100
0000
0010
0000
,  // measure 71
1000
0010
0001
0100
,  // measure 72
0010
0000
0000
0000
0000
0000
0010
0001
0100
0000
0010
0100
0001
0000
1000
0000
,  // measure 73
0100
0000
0000
0000
0000
0000
0010
0100
0001
0000
0100
0000
0010
0000
0100
0000
,  // measure 74
1000
0000
0000
0000
0000
0000
0010
0000
0001
0100
0010
0000
0001
0000
0100
0000
,  // measure 75
1000
0000
0000
0010
0001
0100
0001
0100
,  // measure 76
1000
0000
0000
0000
0100
0001
1000
0100
0001
0000
0010
0000
0001
0000
0100
0000
,  // measure 77
1000
0100
0010
0001
0100
0010
0001
0100
,  // measure 78
1000
0000
0100
0001
1000
0001
0010
0000
,  // measure 79
0010
0000
0001
0000
0100
0010
0100
0000
0100
0000
0010
0000
0001
0000
0100
0000
,  // measure 80
1000
0000
0000
0010
0001
0100
0001
1000
,  // measure 81
0100
0000
0010
0001
1000
0000
0100
0000
,  // measure 82
0220
0000
0330
0010
0001
0100
0001
0100
,  // measure 83
1000
0010
0100
0001
0101
0000
0101
0000
,  // measure 84
0101
0000
0000
0000
0010
0000
0001
0000
0100
0000
0010
0000
0001
0000
0000
0100
,  // measure 85
1000
0010
0001
0100
0010
0000
0001
0000
,  // measure 86
0100
0000
0000
0000
0010
0000
0001
0000
1000
0100
0000
0000
0100
0000
0000
0100
,  // measure 87
0010
0000
0000
0000
0001
0000
0000
0100
1000
0000
0000
0000
0010
0000
0000
0000
,  // measure 88
0100
0000
0000
0000
;
