#TITLE:hvn high;
#SUBTITLE:;
#ARTIST:Jenevieve;
#TITLETRANSLIT:;
#SUBTITLETRANSLIT:;
#ARTISTTRANSLIT:;
#GENRE:;
#CREDIT:;
#BANNER:;
#BACKGROUND:;
#LYRICSPATH:;
#CDTITLE:;
#MUSIC:Hvn High.ogg;
#OFFSET:0.000000;
#SAMPLESTART:100.059883;
#SAMPLELENGTH:12.000000;
#SELECTABLE:YES;
#BPMS:0.000000=105.000000
;
#STOPS:0.000000=0.350000
;
#BGCHANGES:;
#KEYSOUNDS:;
#ATTACKS:;

//---------------dance-single - ----------------
#NOTES:
     dance-single:
     :
     Hard:
     9:
     0.316028,0.428291,0.061736,0.066880,0.174918,430.000000,418.000000,12.000000,13.000000,0.000000,0.000000,0.316028,0.428291,0.061736,0.066880,0.174918,430.000000,418.000000,12.000000,13.000000,0.000000,0.000000:
// measure 0
0000
0000
0000
0000
,  // measure 1
0000
0000
0000
0000
,  // measure 2
0000
0000
0000
0000
,  // measure 3
0000
0000
0000
0000
,  // measure 4
2000
0000
0000
0000
,  // measure 5
0000
0000
0000
0000
3000
0100
0001
0100
,  // measure 6
1000
0020
0000
0000
0000
0000
0030
0100
,  // measure 7
1000
0000
0001
0100
1000
0000
0000
0010
,  // measure 8
0200
0000
0000
0000
,  // measure 9
0000
0000
0000
0000
0300
0001
0100
1000
,  // measure 10
0001
0200
0000
0000
0000
0000
0000
0000
,  // measure 11
2000
0000
0000
3300
,  // measure 12
0020
0000
0000
0000
,  // measure 13
0000
0000
0000
0000
0030
0001
1000
0001
,  // measure 14
0100
1000
0000
0100
0000
0000
0000
0000
,  // measure 15
0000
0000
0000
0000
0000
0000
0000
0100
,  // measure 16
0001
0000
0000
0010
0001
0100
0000
0010
,  // measure 17
0000
0000
0000
0000
0010
0100
0000
0100
,  // measure 18
0000
0020
0000
0000
0000
0000
0000
0000
,  // measure 19
0000
0000
0000
0000
0000
0000
0000
0000
0030
0000
0001
0100
1000
0000
0010
0000
,  // measure 20
0100
0001
0100
1000
0000
0000
0000
0000
,  // measure 21
0100
0001
0100
1000
0000
0000
0000
0000
,  // measure 22
0001
0010
0000
0000
0100
0010
0000
0000
1000
0001
0000
0000
0010
0000
0100
0000
,  // measure 23
0200
0000
0000
0300
,  // measure 24
0100
0000
0010
0000
0100
0001
1000
0100
0000
0000
0010
0000
0100
0001
0000
1000
,  // measure 25
0010
0000
0000
0000
0100
0000
0001
0010
0000
0000
0100
0000
0010
0000
0001
0100
,  // measure 26
1000
0100
1000
0000
0001
0000
0100
0010
,  // measure 27
0100
0000
0001
0000
0010
0000
0000
0000
0100
0000
0000
0000
0010
0000
0001
0100
,  // measure 28
1000
0000
0100
0000
0001
1000
0001
0100
1000
0000
0010
0000
0100
0001
0000
0010
,  // measure 29
0100
0000
0000
0000
0100
0000
0010
0100
0000
0000
0001
0010
0000
0000
0010
0100
,  // measure 30
0001
0010
1000
0000
0001
0000
0100
0000
,  // measure 31
0001
0000
0000
0000
0100
0000
0000
0000
0010
0000
0000
0000
0100
0000
0000
0001
,  // measure 32
0010
0000
0000
0000
0100
0000
0000
0000
0001
0000
1000
0100
0000
0000
0000
0000
,  // measure 33
0001
0000
1000
0000
0001
0000
0100
0000
0010
0000
0100
0001
0000
0000
2000
0000
,  // measure 34
0000
0000
3000
0000
0001
0000
0000
0000
0100
0000
0010
0100
0000
0000
0000
0000
,  // measure 35
1000
0000
0001
0000
0100
0000
0010
0000
0001
0000
1000
0100
0000
0000
0010
0100
,  // measure 36
0100
0000
0010
0000
0001
0000
0000
0000
0001
0000
1000
0100
0000
0000
0010
0000
,  // measure 37
0100
0000
0001
0000
1000
0000
0100
0000
0010
0000
0100
0001
0000
0000
0001
0000
,  // measure 38
0100
0000
0000
0000
0010
0000
0000
0000
0100
0000
0001
1000
0000
0000
0000
0000
,  // measure 39
0100
0000
0010
0000
1000
0000
0001
0000
0100
0000
0001
0100
0000
0000
0001
1000
,  // measure 40
0100
0020
0000
0000
,  // measure 41
0000
0000
0000
0000
0030
1000
0001
0100
,  // measure 42
0010
0200
0000
0000
0000
0000
0300
1000
,  // measure 43
0100
0000
0001
0010
0001
0010
0100
0001
,  // measure 44
0100
0000
0010
0000
1000
0100
0001
0000
,  // measure 45
0000
0000
0000
1000
0100
0000
0001
0100
,  // measure 46
0000
0000
0000
0001
0100
0001
1000
0200
,  // measure 47
0000
0000
0000
0000
0300
0000
0000
0000
0100
0000
0001
0000
1000
0000
0010
0001
,  // measure 48
0010
0000
0000
0000
0010
0000
0000
0000
0001
0000
1000
0000
0100
0010
0100
0001
,  // measure 49
1000
0000
0000
0000
0010
0000
0000
0000
0001
0000
0000
0100
0010
0000
0100
0001
,  // measure 50
1000
0100
0001
1000
,  // measure 51
0100
0010
0001
0100
0001
1000
0100
0000
,  // measure 52
0100
0000
0001
0000
0100
0000
1000
0000
0000
0000
0000
0000
0010
0100
0000
0000
,  // measure 53
0100
0001
0100
1000
0001
1000
0001
0100
,  // measure 54
0001
0100
0000
0000
0001
0010
0000
0000
0010
0100
0000
0000
1000
0000
0002
0000
,  // measure 55
0000
0000
0000
0000
0000
0000
0000
0000
0003
0000
0100
0010
0001
0000
0010
0000
,  // measure 56
0000
0000
0000
0000
0010
0001
1000
0100
0000
0000
0010
0000
0100
0001
0000
0010
,  // measure 57
0100
0000
0000
0000
1000
0000
0100
0001
0000
0000
0010
0000
0001
0000
0100
0000
,  // measure 58
0001
1000
0100
0000
0010
0000
0100
0010
,  // measure 59
0100
0000
0001
0000
1000
0000
0000
0000
0100
0000
0000
0000
0001
0000
1000
0100
,  // measure 60
0001
0000
0010
0000
0100
0000
0001
1000
0000
0000
0100
0000
0001
0010
0000
0100
,  // measure 61
0001
0000
0000
0000
1000
0000
0100
0001
0000
0000
0010
0000
0100
0000
0001
0000
,  // measure 62
0001
0100
1000
0000
0001
0000
0100
0000
,  // measure 63
0001
0000
0000
0000
0100
0000
0000
0000
0010
0000
0000
0000
0100
0000
0000
0001
,  // measure 64
0000
0000
0000
0000
1000
0000
0000
0000
0100
0000
0010
0100
0000
0000
0000
0000
,  // measure 65
0001
0000
1000
0000
0001
0000
0100
0000
0001
0000
1000
0100
0000
0000
0001
0000
,  // measure 66
0100
0000
0000
0000
0010
0000
0000
0000
1000
0000
0100
0001
0000
0000
0000
0000
,  // measure 67
0001
0000
1000
0000
0001
0000
0100
0000
0010
0000
0001
0100
0010
0000
0100
0010
,  // measure 68
0001
0000
0100
0000
1000
0000
0000
0000
0100
0000
0001
0010
0000
0000
0100
0000
,  // measure 69
0001
0000
1000
0000
0100
0000
0001
0000
0100
0000
0010
0100
0000
0000
0100
0000
,  // measure 70
1000
0000
0000
0000
0100
0000
0000
0000
0010
0000
0100
0001
0000
0000
0000
0000
,  // measure 71
0001
0000
1000
0000
0001
0000
0100
0000
0010
0000
0100
0001
0000
0000
0001
0100
,  // measure 72
1000
0000
0000
0000
0100
0000
0000
0000
0010
0000
0001
1000
0000
0000
0010
0000
,  // measure 73
0100
0000
0001
0000
0010
0000
0100
0000
0001
0000
1000
0100
0000
0000
0100
0000
,  // measure 74
1000
0000
0000
0000
0001
0000
0000
0000
0100
0000
0010
0100
0000
0000
0000
0000
,  // measure 75
0001
0000
1000
0000
0001
0000
0100
0000
0010
0000
0001
0100
0000
0000
1000
0100
,  // measure 76
0000
1001
0000
1001
,  // measure 77
0000
0000
0000
0000
1001
0000
0000
0000
0000
0000
0000
0000
1000
0000
0010
0100
,  // measure 78
0000
1001
0000
1001
,  // measure 79
0000
0000
0000
0000
1001
0000
0000
0000
0000
0000
0000
0000
1000
0000
0010
0100
,  // measure 80
0001
1001
0000
1001
,  // measure 81
0000
0000
0000
0000
1001
0000
0000
0000
0000
0000
0000
0000
0001
0000
0001
0100
,  // measure 82
0000
1001
0000
1001
,  // measure 83
0000
1001
0000
0000
;
