#TITLE:huncho step;
#SUBTITLE:;
#ARTIST:BNYX & Quavo;
#TITLETRANSLIT:;
#SUBTITLETRANSLIT:;
#ARTISTTRANSLIT:;
#GENRE:;
#CREDIT:;
#BANNER:;
#BACKGROUND:;
#LYRICSPATH:;
#CDTITLE:;
#MUSIC:BNYX, Quavo - HunchO STEP! (Audio).ogg;
#OFFSET:0.000000;
#SAMPLESTART:100.059883;
#SAMPLELENGTH:12.000000;
#SELECTABLE:YES;
#BPMS:0.000000=115.000000
;
#STOPS:0.000000=0.400000
;
#BGCHANGES:;
#KEYSOUNDS:;
#ATTACKS:;

//---------------dance-single - ----------------
#NOTES:
     dance-single:
     :
     Hard:
     14:
     0.604715,0.667570,0.074700,0.019920,0.677281,850.000000,835.000000,15.000000,4.000000,0.000000,0.000000,0.604715,0.667570,0.074700,0.019920,0.677281,850.000000,835.000000,15.000000,4.000000,0.000000,0.000000:
// measure 0
0000
0000
0000
0000
,  // measure 1
0000
0000
0000
0000
,  // measure 2
0000
0000
0100
0000
1000
0100
0001
0010
0100
0000
0010
0100
0001
0000
0100
0000
,  // measure 3
0000
0000
0010
0000
1000
0100
0001
0010
0100
0000
0010
0100
0001
0000
0010
0000
,  // measure 4
0220
0000
0000
0000
,  // measure 5
0000
0000
0000
0000
0000
0000
0330
0100
,  // measure 6
0010
0000
0100
0000
0010
0100
0001
0000
1000
0100
0001
0000
0010
0000
0100
0000
,  // measure 7
0000
0000
0001
0100
0010
0000
0010
0100
0001
0000
0010
0001
1000
0001
0100
0000
,  // measure 8
0000
0000
0100
0010
0001
0100
0001
0100
0010
0001
1000
0001
0100
0010
0100
0000
,  // measure 9
0000
0000
0100
0001
0010
0000
0100
0000
0001
0010
0100
0001
1000
0000
0100
0000
,  // measure 10
0110
0000
0001
0000
1001
0000
0101
0000
0010
0100
0001
1000
0100
0000
0010
0000
,  // measure 11
0000
0000
0010
0000
0100
0001
1000
0100
0001
0010
0100
0001
0010
0000
0100
0000
,  // measure 12
0000
0010
0100
0001
1000
0001
0000
0010
0100
0001
1000
0010
0100
0001
0010
0000
,  // measure 13
0000
0000
0100
0000
0001
0000
0000
0010
0100
0000
0001
0010
0100
0001
1000
0000
,  // measure 14
1001
0000
0010
0000
0100
0000
0000
0010
0100
0001
1000
0001
0010
0100
0001
0000
,  // measure 15
0010
0000
0100
0000
0010
0100
0001
1000
0001
0000
0100
0010
0100
0010
0100
0000
,  // measure 16
0010
0000
0100
0001
1000
0001
0100
0010
0100
0010
0100
0001
1000
0001
0010
0000
,  // measure 17
0100
0000
0010
0100
0001
0000
1000
0100
0001
0000
0100
0010
0100
0001
0010
0000
,  // measure 18
1001
0000
1000
0000
0001
0000
0100
0000
0010
0000
0100
0001
1000
0001
0010
0000
,  // measure 19
0000
0000
0010
0100
0001
1000
0001
0000
0110
0000
0000
1000
0100
0001
0010
0000
,  // measure 20
1001
0000
0010
0100
0001
1000
0001
0010
0100
0000
0010
0100
0001
0000
0010
0000
,  // measure 21
0000
0000
0001
1000
0100
0000
0010
0001
0100
0000
0010
0100
0001
0000
0010
0000
,  // measure 22
1001
0000
0010
0000
0100
0001
1000
0100
0001
0000
0010
0100
0001
0000
0010
0000
,  // measure 23
0000
0000
0100
0000
0001
0100
1000
0010
0100
0000
0001
0010
0100
0000
0001
0000
,  // measure 24
1001
0000
0000
0010
0000
0100
0001
0000
0000
0000
0000
0000
0000
0000
0000
0000
,  // measure 25
1000
0000
0100
0001
0000
0010
0100
0000
0000
0000
0010
0000
0100
0001
0000
0000
,  // measure 26
0000
0000
0010
0000
0001
0010
0100
0001
0010
0000
0001
0100
1000
0000
0100
0000
,  // measure 27
0000
0000
0010
0000
0100
0001
1000
0001
0010
0000
0001
0100
1000
0000
0010
0000
,  // measure 28
0100
0001
0000
0010
0000
0100
0001
0000
0000
0000
0000
0000
1000
0000
0100
0001
,  // measure 29
0010
0100
0000
0001
0000
1000
0100
0000
0000
0000
0010
0000
0000
0100
0010
0001
,  // measure 30
0100
0000
0010
0000
0100
0001
1000
0100
0001
0000
0010
0100
0001
0000
1000
0000
,  // measure 31
0000
0000
0010
0000
0001
0100
0001
1000
0200
0000
0000
0000
0300
0000
0000
0000
,  // measure 32
0100
0010
0000
0000
0000
0000
0100
0000
0001
0000
0010
0100
0001
1000
0001
0100
,  // measure 33
0010
0100
0000
0000
0000
1000
0100
0000
0100
0000
0010
0000
0001
0100
0001
1000
,  // measure 34
0100
0010
0100
0000
0000
0010
0100
0000
0001
1000
0100
0000
0001
0010
0100
0001
,  // measure 35
0010
0100
0010
0000
0000
0010
0000
0100
0001
0000
1000
0100
0001
0010
0100
0001
,  // measure 36
1000
0100
0001
0000
0000
0000
0110
0000
0010
0100
0001
1000
0001
0100
0010
0100
,  // measure 37
1000
0000
0100
0000
0000
0000
0001
0000
0010
0000
0001
0100
0010
0000
0001
1000
,  // measure 38
0100
0000
0010
0000
0000
0000
0100
0001
1000
0001
0010
0100
0010
0000
0001
0100
,  // measure 39
1000
0000
0010
0000
0000
0000
0100
0001
1000
0000
0100
0000
0010
0000
0001
0010
,  // measure 40
0100
0000
0010
0100
0000
0010
0100
0001
1000
0000
0000
0000
0100
0001
1000
0001
,  // measure 41
0010
0000
0001
0100
0010
0000
1000
0100
0000
0000
0000
0000
0010
0000
0100
0001
,  // measure 42
1000
0000
0100
0001
0010
0000
0001
0100
0010
0000
0000
0000
0100
0001
1000
0001
,  // measure 43
0010
0000
0001
1000
0100
0000
0010
0100
0001
0000
0000
0000
0001
0010
0100
0000
,  // measure 44
1000
0000
0100
0000
0001
0000
0010
0100
0001
0000
0000
0000
0010
0001
0100
0000
,  // measure 45
0010
0000
0001
1000
0100
0000
0010
0100
0001
0000
0000
0000
0010
0100
0001
1000
,  // measure 46
0100
0000
0001
0100
0010
0000
0100
0001
0010
0000
0000
0000
0010
0100
0000
0001
,  // measure 47
1000
0100
0000
0010
0100
0000
0001
1000
0100
0000
0010
0000
0100
0001
1000
0001
,  // measure 48
0010
0001
0100
0000
0001
0000
0010
0100
0000
0000
0000
0000
0001
0100
0001
1000
,  // measure 49
0100
0010
0100
0000
0001
0000
1000
0000
0100
0010
0000
0100
0001
0000
0011
0000
,  // measure 50
1000
0000
0100
0001
1000
0001
0010
0100
0001
0000
0100
1000
0010
0000
0001
0000
,  // measure 51
1000
0000
0001
0000
0010
0100
0001
1000
0001
0000
0010
0100
0001
0000
1000
0000
,  // measure 52
0100
0000
0000
0010
0000
0100
0001
0000
0000
0000
0000
0000
0000
0000
0000
0000
,  // measure 53
0100
0000
0000
0010
0000
0100
0001
0000
0000
0000
1000
0000
0000
0100
0000
0000
,  // measure 54
0010
0000
0100
0000
0001
1000
0100
0001
0010
0000
1000
0100
0001
0000
1000
0000
,  // measure 55
0000
0000
0100
0000
0010
0100
0001
1000
0001
0000
0010
0100
0001
0000
1000
0000
,  // measure 56
0100
0010
0000
0100
0000
0001
1000
0000
0000
0000
0000
0000
0100
0000
0010
0100
,  // measure 57
0001
0010
0000
0100
0000
0010
0100
0000
0000
0000
0010
0000
0100
1000
0001
0010
,  // measure 58
0100
0000
0001
0000
0100
0010
0100
0001
1000
0000
0100
0001
0010
0000
0100
0000
,  // measure 59
0000
0000
0010
0000
0100
0010
0001
0100
1000
0000
0001
0100
1000
0000
0001
0000
,  // measure 60
0010
0000
0000
0001
0000
1000
0100
0000
0000
0000
0010
0000
0100
0000
0001
0010
,  // measure 61
0100
0000
0000
0010
0000
0100
0001
0000
0000
0000
1000
0000
0100
0001
0010
0100
,  // measure 62
0001
0000
0100
0000
0010
0100
0001
1000
0001
0000
0100
0010
0100
0000
0010
0000
,  // measure 63
0000
0000
0001
0000
0010
0100
0001
0100
1000
0000
0010
0001
1000
0000
0100
0000
,  // measure 64
0100
0000
0000
0000
0100
0000
0000
0000
0100
0000
0000
0000
0100
0000
0010
0100
,  // measure 65
0001
0000
0000
0000
0001
0000
0000
0000
0001
0000
0000
0000
0001
0000
0001
0100
,  // measure 66
1000
0000
0000
0000
1000
0100
0000
0001
0010
0000
0000
0000
0010
0000
0100
0001
,  // measure 67
0010
0000
0000
0000
0010
0000
0000
0000
0010
0000
0000
0000
0010
0000
1000
0001
,  // measure 68
0100
0000
0000
0000
0100
0001
1000
0100
0001
0000
0000
0000
0001
0000
0100
1000
,  // measure 69
0001
0000
0000
0000
0001
0000
0000
0000
0001
0000
0000
0000
0001
0000
0001
1000
,  // measure 70
0100
0000
0000
0000
0100
0010
0000
0100
0010
0000
0000
0000
0010
0000
0001
0100
,  // measure 71
1000
0000
0010
0000
1000
0000
0010
0000
1000
0000
0010
0000
1000
0000
0001
0100
,  // measure 72
1000
0010
0000
0100
0000
0001
0010
0000
0000
0000
0000
0000
0100
0000
0010
0100
,  // measure 73
0001
0010
0000
0100
0000
0001
1000
0000
0000
0000
0010
0000
0100
0010
0001
0100
,  // measure 74
1000
0000
0000
0000
0010
0100
0000
0001
0010
0000
0000
0000
0010
0000
0001
0100
,  // measure 75
1000
0000
0000
0000
0000
0000
0000
0000
0000
0000
0000
0000
0010
0000
0001
0100
,  // measure 76
1000
0000
0000
0100
0000
0010
0001
0000
0000
0000
0000
0000
1000
0000
0100
0001
,  // measure 77
0010
0000
0000
0100
0000
0001
1000
0000
0000
0000
0100
0000
0010
0100
0001
1000
,  // measure 78
0001
0000
0000
0000
0001
0010
0000
0100
0001
0000
0000
0000
0001
0000
0001
0100
,  // measure 79
1000
0001
1001
0001
1001
0001
1001
0000
,  // measure 80
0010
0000
0001
0000
0100
0010
0000
0000
0100
0000
0010
0000
0100
0010
0000
0000
,  // measure 81
0100
0000
0000
0000
0010
0100
0000
0000
0100
0000
0001
0000
0010
0100
0000
0000
,  // measure 82
0010
0000
0001
0000
1000
0100
0000
0000
0100
0000
0010
0000
0001
1000
0000
0000
,  // measure 83
0100
0000
0010
0000
0100
0001
0000
0000
0010
0000
0100
0000
0001
1000
0000
0000
,  // measure 84
0100
0010
0000
0100
0000
0001
1000
0000
0000
0000
0000
0000
0100
0010
0000
0000
,  // measure 85
0100
0010
0000
0001
0000
0100
1000
0000
0000
0000
0100
0000
0000
0010
0000
0000
,  // measure 86
0010
0000
0001
0000
0100
0010
0000
0000
0100
0000
0001
0000
1000
0100
0000
0000
,  // measure 87
0010
0000
0001
0000
1000
0100
0000
0000
0010
0000
0000
0000
0100
0001
0000
0000
,  // measure 88
0100
0100
0010
0100
0010
0001
0100
0000
,  // measure 89
0010
0100
0010
0100
0001
0100
1000
0000
,  // measure 90
0010
0001
0100
0010
0100
0100
1000
0000
,  // measure 91
0100
0010
0100
0010
0100
0001
0100
0000
,  // measure 92
0010
0100
0010
0100
0001
0100
1000
0000
,  // measure 93
0100
0010
0001
1000
0001
0100
0010
0000
,  // measure 94
0100
0000
0000
0010
0000
0000
0200
0000
0000
0000
0000
0000
0000
0000
0000
0000
,  // measure 95
0300
0001
0010
0100
0000
0001
1000
0000
;
