#VERSION:0.83;
#TITLE:how do you do;
#SUBTITLE:;
#ARTIST:Boom;
#TITLETRANSLIT:;
#SUBTITLETRANSLIT:;
#ARTISTTRANSLIT:;
#GENRE:;
#ORIGIN:;
#CREDIT:;
#BANNER:;
#BACKGROUND:;
#PREVIEWVID:;
#JACKET:;
#CDIMAGE:;
#DISCIMAGE:;
#LYRICSPATH:;
#CDTITLE:;
#MUSIC:Boom - How Do You Do (Official UK Version).ogg;
#OFFSET:0.000000;
#SAMPLESTART:100.059883;
#SAMPLELENGTH:12.000000;
#SELECTABLE:YES;
#BPMS:0.000=135.000;
#STOPS:0.000=1.400;
#DELAYS:;
#WARPS:;
#TIMESIGNATURES:0.000=4=4;
#TICKCOUNTS:0.000=4;
#COMBOS:0.000=1;
#SPEEDS:0.000=1.000=0.000=0;
#SCROLLS:0.000=1.000;
#FAKES:;
#LABELS:0.000=Song Start;
#BGCHANGES:0.000=Boom - How Do You Do (Official Music Video) Ministry of Sound.mp4=1.000=0=0=1=====,
99999=-nosongbg-=1.000=0=0=0 // don't automatically add -songbackground-
;
#KEYSOUNDS:;
#ATTACKS:
;

//---------------dance-single - ----------------
#NOTEDATA:;
#CHARTNAME:;
#STEPSTYPE:dance-single;
#DESCRIPTION:;
#CHARTSTYLE:;
#DIFFICULTY:Hard;
#METER:12;
#RADARVALUES:0.531834,0.455803,0.026655,0.026655,0.000000,838.000000,832.000000,6.000000,6.000000,0.000000,0.000000,0.000000,0.000000,0.000000,0.531834,0.455803,0.026655,0.026655,0.000000,838.000000,832.000000,6.000000,6.000000,0.000000,0.000000,0.000000,0.000000,0.000000;
#CREDIT:;
#NOTES:
// measure 0
0000
0000
0000
0000
,  // measure 1
0000
0000
0000
0000
,  // measure 2
0000
0000
0000
0000
,  // measure 3
0000
0000
0000
0000
,  // measure 4
0001
0000
0100
0010
0001
1000
0001
0100
,  // measure 5
1000
0000
0100
0010
0001
1000
0001
0100
,  // measure 6
1000
0000
0010
0001
0100
0001
0100
1000
,  // measure 7
0001
0000
0100
0000
0010
0100
0001
0100
,  // measure 8
1000
0010
0001
0100
0001
0100
0010
0001
,  // measure 9
0100
0001
0100
0010
0001
1000
0001
0100
,  // measure 10
0010
0001
0100
0001
0100
0010
0100
1000
,  // measure 11
0100
0010
0001
0100
0001
0100
0010
0001
,  // measure 12
0100
0001
0100
0010
0001
0100
0001
0100
,  // measure 13
0010
0001
1000
0001
0100
0010
0001
0100
,  // measure 14
0001
0100
0010
0001
0100
0001
0100
0010
,  // measure 15
2002
0000
0000
3003
,  // measure 16
0100
0010
0001
0100
0001
0100
0010
0001
,  // measure 17
1000
0001
0100
0010
0001
0100
0001
0100
,  // measure 18
0010
0001
1000
0001
0100
0010
0001
0100
,  // measure 19
0001
0100
0010
0001
0100
0001
0100
0010
,  // measure 20
0001
1000
0001
0100
0010
0001
0100
0001
,  // measure 21
0100
0010
0010
0001
0100
0001
0100
0010
,  // measure 22
0001
1000
0001
0100
0010
0001
0100
0001
,  // measure 23
0100
0001
0000
0010
0000
0100
0010
0100
,  // measure 24
0010
0001
0100
0010
0001
0100
0001
0100
,  // measure 25
1000
0010
0100
0001
0100
0010
0100
1000
,  // measure 26
0100
0010
0001
0100
0001
0100
0010
0001
,  // measure 27
1000
0001
0100
0010
0001
0100
0001
0100
,  // measure 28
0010
0001
1000
0001
0100
0010
0001
0100
,  // measure 29
0001
0100
0010
0001
1000
0001
0100
0010
,  // measure 30
0001
0100
0001
0100
0010
0001
0100
0001
,  // measure 31
0100
1000
0100
0010
0001
0100
0001
0100
,  // measure 32
0110
0000
0010
0000
0001
0100
0001
0100
,  // measure 33
1000
0100
0010
0001
1000
0001
0100
0010
,  // measure 34
0001
0100
0001
0100
0010
1000
0010
0100
,  // measure 35
0010
0001
0100
0001
0100
0010
0100
0010
,  // measure 36
0100
1000
0100
0010
0001
0100
0001
0100
,  // measure 37
0010
0100
0001
0100
1000
0100
0010
0001
,  // measure 38
0100
0001
0100
0010
0001
0100
0001
0100
,  // measure 39
0010
0001
0100
1000
0001
0100
0010
0001
,  // measure 40
0100
0001
0100
0010
0001
1000
0001
0100
,  // measure 41
0010
0001
0100
0001
0100
0010
0001
0100
,  // measure 42
0001
0100
1000
0100
0010
0001
0100
0001
,  // measure 43
0100
0010
0001
0100
0001
0100
0010
0001
,  // measure 44
1000
0001
0100
0010
0001
0100
0001
0100
,  // measure 45
0010
0001
0100
0001
0100
0010
0001
1000
,  // measure 46
0001
0100
0010
0001
0100
0001
0100
0010
,  // measure 47
0001
1000
0001
0100
0010
0001
0100
0001
,  // measure 48
0100
0010
0100
0001
,  // measure 49
0001
0100
0010
0001
1000
0001
0100
0010
,  // measure 50
0001
0100
0001
0100
0010
0001
1000
0001
,  // measure 51
0100
0010
0001
0100
0001
0100
0010
0001
,  // measure 52
1000
0001
0100
0010
0001
0100
0001
0100
,  // measure 53
1000
0010
0100
0010
0001
0100
0001
0100
,  // measure 54
0010
0001
0100
0001
0100
0010
0001
1000
,  // measure 55
0001
0100
0010
0001
0100
0001
0100
0010
,  // measure 56
2002
0000
0000
3003
,  // measure 57
0010
0100
0001
0100
0010
0100
1000
0010
,  // measure 58
0100
0001
0100
0001
0100
0010
0100
1000
,  // measure 59
0100
0100
0010
0100
0100
0010
0100
0100
,  // measure 60
1000
0100
0010
0100
0010
0100
0010
0001
,  // measure 61
1000
0001
0100
0010
0001
0100
0001
0100
,  // measure 62
0010
0001
1000
0001
0100
0010
0001
0100
,  // measure 63
0001
0100
0010
0001
0100
0001
0100
0010
,  // measure 64
2002
0000
0000
0000
3003
0010
0001
0100
,  // measure 65
0100
0010
0100
0010
0100
0010
1000
0010
,  // measure 66
0100
0010
0100
0010
0100
0010
0010
1000
,  // measure 67
0100
0100
0010
0100
0010
0100
0010
0100
,  // measure 68
0010
0100
0001
0100
0010
0100
0001
1000
,  // measure 69
0100
0010
0100
1000
0010
0100
0010
0001
,  // measure 70
0100
0001
0100
0010
0001
0100
0001
0100
,  // measure 71
0010
0001
0100
0001
0100
0010
0001
1000
,  // measure 72
0001
0100
0001
0100
0010
0001
0100
0001
,  // measure 73
0100
0000
0010
0000
0001
0100
0001
0100
,  // measure 74
1000
0010
0001
0100
0001
0100
0010
0001
,  // measure 75
0100
0001
0100
0010
0001
0100
0001
1000
,  // measure 76
0100
0100
0010
0100
0010
0100
1000
0100
,  // measure 77
0010
0001
0100
0001
0100
0010
0100
0010
,  // measure 78
0100
0010
0100
1000
0100
0010
0100
0001
,  // measure 79
0100
0010
0001
1000
0001
0100
0010
0001
,  // measure 80
0100
0001
0100
0010
0001
0100
0001
0100
,  // measure 81
0010
0001
0100
0001
0100
0010
0001
1000
,  // measure 82
0001
0100
0010
0001
0100
0001
0100
0010
,  // measure 83
0001
1000
0001
0100
0010
0001
0100
0001
,  // measure 84
0100
0010
0001
1000
0001
0100
0010
0001
,  // measure 85
0100
0001
0100
0010
0001
1000
0001
0100
,  // measure 86
0010
0001
0100
0001
0100
0010
0001
1000
,  // measure 87
0001
0100
0010
0001
0100
0001
0100
0010
,  // measure 88
0001
1000
0001
0100
0010
0001
0100
0001
,  // measure 89
0100
0001
0001
0001
,  // measure 90
1000
0000
0100
0100
0001
0100
0001
0100
,  // measure 91
1000
0000
0010
0100
0001
1000
0001
0010
,  // measure 92
0100
0000
0100
0010
0001
0100
0001
0100
,  // measure 93
1000
0100
0001
0100
,  // measure 94
0100
0000
0010
0100
0001
0100
0001
0100
,  // measure 95
1000
0000
0100
0010
0001
1000
0001
0100
,  // measure 96
1000
0000
0100
0010
0001
0100
0001
0100
,  // measure 97
1001
0000
0010
0000
0001
0100
0001
0100
,  // measure 98
1000
0010
0100
0100
0010
0100
0010
0001
,  // measure 99
1000
0001
0100
0010
0001
0100
0001
0100
,  // measure 100
0010
0100
1000
0100
0010
0100
0001
0100
,  // measure 101
0010
0001
1000
0001
0100
0010
0100
0001
,  // measure 102
0100
0010
0100
1000
0100
0010
0100
0010
,  // measure 103
0100
1000
0100
0010
0001
0100
0001
0100
,  // measure 104
0010
0001
1000
0001
0100
0010
0001
0100
,  // measure 105
0001
0100
0010
0001
1000
0001
0100
0010
,  // measure 106
0001
1000
0001
0100
0010
0001
0001
0100
,  // measure 107
0010
0100
1000
0100
0010
0001
0100
0001
,  // measure 108
0100
0010
0001
1000
0001
0100
0010
0001
,  // measure 109
0100
0001
0100
0010
0001
1000
0001
0100
,  // measure 110
0010
0001
0100
0001
0100
0010
0001
1000
,  // measure 111
0001
0100
0010
0001
0100
0001
0100
0010
,  // measure 112
0001
1000
0001
0100
0010
0001
0100
0001
,  // measure 113
0100
0010
0001
1000
0001
0100
0001
0100
,  // measure 114
0110
0000
0000
0000
;
