#TITLE:home;
#SUBTITLE:;
#ARTIST:Charlie Puth & Hikaru Utada;
#TITLETRANSLIT:;
#SUBTITLETRANSLIT:;
#ARTISTTRANSLIT:;
#GENRE:;
#CREDIT:;
#BANNER:;
#BACKGROUND:;
#LYRICSPATH:;
#CDTITLE:;
#MUSIC:Charlie Puth - Home (feat. Hikaru Utada).ogg;
#OFFSET:0.000000;
#SAMPLESTART:100.059883;
#SAMPLELENGTH:12.000000;
#SELECTABLE:YES;
#BPMS:0.000000=94.000000
;
#STOPS:0.000000=0.150000
;
#BGCHANGES:0.000=Charlie Puth - Home (feat. Hikaru Utada).mp4=1.000=0=0=1=====,
99999=-nosongbg-=1.000=0=0=0 // don't automatically add -songbackground-
;
#KEYSOUNDS:;
#ATTACKS:;

//---------------dance-single - ----------------
#NOTES:
     dance-single:
     :
     Hard:
     9:
     0.305679,0.417009,0.097262,0.119367,0.143682,484.000000,462.000000,22.000000,27.000000,0.000000,0.000000,0.305679,0.417009,0.097262,0.119367,0.143682,484.000000,462.000000,22.000000,27.000000,0.000000,0.000000:
// measure 0
0000
0000
0000
0000
,  // measure 1
0000
0000
0000
0000
,  // measure 2
0110
0000
0000
0000
0000
0000
0100
0001
0010
0000
0100
0001
0010
0000
0100
0000
,  // measure 3
0110
0000
0000
0000
0000
0000
0001
0100
0010
0000
0001
0100
0001
0000
0100
0000
,  // measure 4
0110
0000
0000
0000
0000
0010
0100
0001
1000
0000
0001
0010
0100
0000
1000
0000
,  // measure 5
0010
0001
0100
0010
0001
0100
1000
0000
,  // measure 6
1001
0000
0000
0000
0000
0000
0001
0100
0010
0000
0001
0100
1000
0000
0000
0000
,  // measure 7
0110
0000
0000
0000
0000
0000
0010
0001
0100
0000
1000
0001
0100
0000
0000
0000
,  // measure 8
0110
0000
0000
0000
0000
0000
0010
0001
1000
0000
0001
0000
0100
0000
0000
0000
,  // measure 9
0100
0000
1000
0000
0001
0000
0000
0000
0100
0000
0010
0000
0100
0000
0001
0010
,  // measure 10
0100
0000
0000
0000
0000
0000
0100
0010
0001
0000
0100
0000
0001
0000
1000
0000
,  // measure 11
0100
0000
0000
0010
0001
1000
0001
0100
,  // measure 12
1000
0000
0000
0010
0001
1000
0001
0100
,  // measure 13
1000
0010
0100
0100
,  // measure 14
0220
0000
0000
0000
0330
0100
0001
0200
,  // measure 15
0000
0000
0000
0000
0000
0300
0100
0001
,  // measure 16
0000
0000
0001
0000
1000
0000
0001
0000
0100
0000
0010
0000
1000
0000
0000
0100
,  // measure 17
0001
0000
0000
0010
,  // measure 18
0220
0000
0000
0000
0330
0001
0100
2000
,  // measure 19
0000
0000
0000
0000
3000
0010
0001
0100
,  // measure 20
0000
0001
1000
0001
0100
0000
0000
0100
,  // measure 21
0000
0000
0010
0000
0001
0000
1000
0000
0001
0000
0100
0000
0010
0000
0000
0001
,  // measure 22
0200
0000
0000
0300
,  // measure 23
0020
0000
0000
0030
,  // measure 24
2000
0000
0000
0000
,  // measure 25
0000
0000
0000
3000
,  // measure 26
0100
0000
0001
0100
0001
0000
1000
0100
0001
0000
0000
0100
0001
0010
0100
0000
,  // measure 27
1001
0000
0000
0000
0000
0000
0001
0010
0100
0000
0001
1000
0001
0000
0100
0000
,  // measure 28
0110
0000
0000
0000
0000
0010
0100
0001
1000
0000
0100
0001
0010
0000
0100
0001
,  // measure 29
1000
0000
0001
0000
0100
0000
0000
0100
0001
0000
0010
0000
0110
0000
0000
0000
,  // measure 30
0110
0000
0000
0000
0000
0000
0001
0100
0010
0000
0100
0001
0010
0000
0100
0000
,  // measure 31
0110
0000
0000
0000
0000
0000
0001
0100
0010
0000
0100
0001
0010
0000
0100
0001
,  // measure 32
0000
0000
0000
0000
0000
0000
0001
0100
0010
0000
0100
0000
0001
0000
0010
0100
,  // measure 33
0001
0000
0010
0000
0001
0000
1000
0000
0001
0000
0100
0000
1000
0000
0010
0001
,  // measure 34
0100
0000
0000
0010
0010
1000
0001
0100
,  // measure 35
0010
0000
0000
0010
0001
1000
0001
0100
,  // measure 36
1000
0000
0000
0010
0001
1000
0001
0100
,  // measure 37
1000
0001
0100
0010
,  // measure 38
0220
0000
0000
0000
0330
0001
0100
2000
,  // measure 39
0000
0000
0000
0000
0000
3000
0100
0001
,  // measure 40
0000
0000
0001
0000
1000
0000
0001
0000
0100
0000
0010
0000
1000
0000
0000
0100
,  // measure 41
0001
0110
0000
0000
0000
0000
1000
0000
,  // measure 42
0220
0000
0000
0000
0330
0010
0001
0200
,  // measure 43
0000
0000
0000
0000
0000
0000
0000
0000
0300
0010
1000
0100
0001
0010
0100
0000
,  // measure 44
0000
0100
0001
1000
0100
0000
0000
0110
,  // measure 45
0000
0000
0100
0000
0001
0000
1000
0000
0100
0000
0100
0000
0010
0000
0000
0001
,  // measure 46
0020
0000
0000
0030
,  // measure 47
0200
0000
0000
0000
0300
0100
0001
0010
,  // measure 48
0001
0010
0100
0002
0000
0000
0000
1003
,  // measure 49
0000
0000
0010
0000
0001
0000
0100
0000
0001
0000
0100
0000
1000
0000
0000
0010
,  // measure 50
0100
0000
0000
0000
0001
0000
0000
0010
0100
0000
0000
0000
0001
0000
0000
0100
,  // measure 51
1000
0000
0020
0000
0030
0001
0100
1000
,  // measure 52
0000
0010
0001
0200
0000
0000
0000
0000
,  // measure 53
0000
0000
0000
0000
0000
0000
0000
0300
,  // measure 54
0110
0000
0000
0010
0001
1000
0001
0100
,  // measure 55
1000
0000
0000
0010
0001
1000
0001
0100
,  // measure 56
1000
0000
0000
0010
0001
1000
0001
0100
,  // measure 57
1000
0001
0100
1000
,  // measure 58
0110
0000
0000
0010
0001
1000
0001
0100
,  // measure 59
1000
0000
0000
0000
0000
0000
0100
0001
0010
0000
0010
0000
0001
0000
0000
1000
,  // measure 60
0100
0000
0100
0010
0001
0000
0000
0100
1000
0000
0001
0000
1000
0000
0001
0000
,  // measure 61
0100
0010
0001
0100
,  // measure 62
0220
0000
0000
0000
0330
0010
0100
0001
,  // measure 63
0000
0010
0100
0010
0000
0000
0010
0100
,  // measure 64
0000
0000
0001
0000
1000
0000
0001
0000
0010
0000
0100
0000
1000
0000
0000
0100
,  // measure 65
0001
0000
0000
0000
1000
0000
0000
0010
0100
0000
0000
0000
0001
0000
0000
0000
,  // measure 66
0220
0000
0000
0000
0330
0010
0001
0100
,  // measure 67
0010
0000
0000
0100
0000
0000
0001
0000
0000
0000
0100
0000
0001
0000
1000
0000
,  // measure 68
0000
0010
0001
0100
1000
0001
0100
1000
,  // measure 69
0000
0000
0010
0000
0001
0000
1000
0000
0001
0000
0100
0000
0001
0000
0000
0100
,  // measure 70
1000
0000
0100
0000
0001
0000
1000
0100
0001
0000
0010
0100
0001
0000
1000
0100
,  // measure 71
0001
0000
0100
0000
0010
0000
0100
0000
0001
0000
0100
0000
1000
0000
0000
0010
,  // measure 72
0001
0000
1000
0000
0001
0000
0100
0010
0001
0000
0100
0010
1000
0000
0001
0000
,  // measure 73
0100
0010
0001
1000
0001
0100
1000
0001
,  // measure 74
0100
0000
0010
0100
0001
0000
0010
0000
0001
0000
0100
0000
1000
0000
0100
0010
,  // measure 75
0001
1000
0001
0100
0001
1000
0100
0000
,  // measure 76
0001
0000
0010
0000
0100
0000
0001
0100
1000
0000
0010
0000
0001
0000
1000
0000
,  // measure 77
0001
0100
0010
0001
1000
0001
0100
0010
,  // measure 78
2002
0000
0000
0000
,  // measure 79
0000
0000
0000
0000
,  // measure 80
0000
0000
0000
0000
,  // measure 81
3003
0000
0010
0001
1000
0100
0100
0010
,  // measure 82
0001
0000
0000
0100
0001
0000
0000
0000
0000
0000
0000
0100
0010
0000
0000
0100
,  // measure 83
0001
0000
0000
0010
0100
0000
0000
0001
0020
0000
0000
0000
0000
0000
0000
0000
,  // measure 84
0000
0000
0000
0000
,  // measure 85
0000
0000
0000
0030
;
