#TITLE:holding on;
#SUBTITLE:;
#ARTIST:Loose Goose, A Trak, & Gus Dapperton;
#TITLETRANSLIT:;
#SUBTITLETRANSLIT:;
#ARTISTTRANSLIT:;
#GENRE:;
#CREDIT:;
#BANNER:;
#BACKGROUND:;
#LYRICSPATH:;
#CDTITLE:;
#MUSIC:holding on.ogg;
#OFFSET:0.000000;
#SAMPLESTART:100.059883;
#SAMPLELENGTH:12.000000;
#SELECTABLE:YES;
#BPMS:0.000000=133.000000
,324.000000=66.500000
,340.000000=133.000000
;
#STOPS:0.000000=0.300000,
290.000000=1.000000
;
#BGCHANGES:0.000=Loose Goose, A-Trak, Gus Dapperton - holding on (Official Music Video).mp4=0.000=0=0=1=====,
99999=-nosongbg-=1.000=0=0=0 // don't automatically add -songbackground-
;
#KEYSOUNDS:;
#ATTACKS:;

//---------------dance-single - ----------------
#NOTES:
     dance-single:
     :
     Hard:
     12:
     0.525184,0.605861,0.000000,0.033650,0.094641,874.000000,874.000000,0.000000,8.000000,0.000000,0.000000,0.525184,0.605861,0.000000,0.033650,0.094641,874.000000,874.000000,0.000000,8.000000,0.000000,0.000000:
// measure 0
0000
0000
0000
0000
,  // measure 1
0000
0000
0000
0000
,  // measure 2
0000
0000
0000
0000
,  // measure 3
1000
0000
0001
0000
0100
0010
0000
0001
,  // measure 4
0100
0000
0010
0000
0001
0100
0000
1000
,  // measure 5
1000
0000
0001
0000
0100
0010
0000
0100
,  // measure 6
0001
0000
0100
0000
0001
0010
0000
0100
,  // measure 7
0001
0010
0100
0001
1000
0001
0010
0100
,  // measure 8
0001
0000
0000
0000
0000
0000
1000
0001
,  // measure 9
1000
0001
0100
0001
0100
0010
0001
1000
,  // measure 10
0001
0100
0010
0001
0100
0001
0100
0010
,  // measure 11
0001
1000
0001
0100
0010
0001
0100
0001
,  // measure 12
0100
0010
0001
1000
0001
0100
0010
0001
,  // measure 13
0100
0001
0100
0010
0001
1000
0001
0100
,  // measure 14
0010
0001
0100
0001
0100
0010
0001
1000
,  // measure 15
0001
0100
0010
0001
0100
0001
0100
0010
,  // measure 16
0001
1000
0001
0100
0010
0001
0100
0001
,  // measure 17
0100
0010
0001
0100
0001
0100
0010
0001
,  // measure 18
1000
0001
0100
0010
0001
0100
0001
0100
,  // measure 19
0010
0001
1000
0001
0100
0010
0001
0100
,  // measure 20
0001
0100
0010
0001
0100
0001
0100
0010
,  // measure 21
0001
1000
0001
0100
0010
0001
1000
0001
,  // measure 22
0100
0010
0001
1000
0001
0100
0010
1000
,  // measure 23
0001
0100
0010
0001
1000
0001
0100
0010
,  // measure 24
0001
0100
0001
0100
0000
0001
1000
0001
,  // measure 25
0100
0000
0010
0000
0001
0100
0000
1000
,  // measure 26
0100
0000
0001
0000
0000
0001
0000
0100
,  // measure 27
0010
0100
0000
0010
0000
1000
0000
0100
,  // measure 28
0001
0000
1000
0000
0100
0000
0000
0001
,  // measure 29
0010
0100
2000
0000
,  // measure 30
0000
0000
0000
0000
3000
0000
1000
0100
,  // measure 31
0002
0000
0000
0000
,  // measure 32
0003
0000
0100
0001
1000
0100
0000
0001
,  // measure 33
1000
0100
0010
0000
0100
0000
0000
0000
0010
0000
0000
0000
0100
0000
0001
0000
,  // measure 34
0000
1000
0000
0000
0000
0001
0000
0100
,  // measure 35
0001
0010
0100
0000
1000
0000
0010
0000
,  // measure 36
0100
0001
0010
0100
0000
0001
0000
0100
,  // measure 37
0001
1000
0100
0000
0020
0000
0000
0000
,  // measure 38
0000
0000
0000
0000
0030
0000
0100
0001
,  // measure 39
1000
0001
0020
0000
0000
0000
0000
0000
,  // measure 40
0000
0000
0000
0000
0000
0000
0030
0001
,  // measure 41
0100
0001
1000
0010
0001
0100
0010
0001
,  // measure 42
0010
0100
0010
0100
0010
0100
0010
0100
,  // measure 43
1000
0100
0010
0100
0010
0100
0001
0100
,  // measure 44
0001
0100
1000
0001
0100
0001
0100
0010
,  // measure 45
0001
0100
0001
0100
0010
0001
0001
0100
,  // measure 46
0001
0100
0001
0100
0010
0001
0100
0001
,  // measure 47
0100
0001
0100
1000
0100
0010
0001
0100
,  // measure 48
0001
0100
0010
0001
0100
0001
0100
0010
,  // measure 49
0001
0100
0001
0100
0010
0001
1000
0001
,  // measure 50
0100
0010
0001
0100
0001
0100
0010
0001
,  // measure 51
0100
0001
0100
0010
0001
1000
0001
0100
,  // measure 52
0010
0001
0100
0001
0100
0001
1000
0001
,  // measure 53
0100
0001
0100
0001
0100
0001
0100
0010
,  // measure 54
0001
0100
0001
0100
0010
0001
0100
0001
,  // measure 55
0100
1000
0001
0100
0010
0001
1000
0001
,  // measure 56
0100
0000
0010
0000
0001
0000
1000
0000
0001
0000
0100
0000
0001
0010
0100
0001
,  // measure 57
0010
0001
1000
0001
0100
0010
0100
0001
1000
0000
1000
0000
0001
0000
0100
0000
,  // measure 58
0010
0001
0100
0001
0100
0010
0001
1000
,  // measure 59
0001
0100
0010
0001
0100
0001
0100
0010
,  // measure 60
0001
1000
0001
0100
0010
0001
0100
0001
,  // measure 61
0100
0010
0001
0100
0001
0100
0010
0001
,  // measure 62
1000
0001
0100
0010
0001
0100
0001
0100
,  // measure 63
0010
0001
1000
0001
0100
0010
0001
0100
,  // measure 64
0001
0100
0010
0001
0100
0001
0100
0010
,  // measure 65
0001
1000
0001
0100
1000
0000
0100
0100
,  // measure 66
0001
0000
0010
1000
0100
0000
0001
0100
,  // measure 67
1000
0010
0001
0000
1000
0000
0100
0001
,  // measure 68
0010
0000
0001
0100
1000
0000
0010
0100
,  // measure 69
0001
1000
0001
0000
0100
0000
0001
0100
,  // measure 70
0001
0000
1000
0100
0001
0000
0010
0100
,  // measure 71
0001
1000
0001
0000
0100
0000
0001
0100
,  // measure 72
0001
0000
1000
0100
0001
0000
1000
0001
,  // measure 73
0010
0001
0100
0001
0100
0001
0100
0001
,  // measure 74
0100
0010
0001
1000
0001
0100
0010
0001
,  // measure 75
1000
0001
0100
0010
0001
0100
0001
0100
,  // measure 76
0010
0001
1000
0001
0100
0010
0001
0100
,  // measure 77
0001
0100
0010
0001
1000
0001
0100
0010
,  // measure 78
0001
0100
0001
0100
0010
0001
1000
0001
,  // measure 79
0100
0010
0001
0100
0001
0100
0010
0001
,  // measure 80
1000
0001
0100
0010
0001
0100
0001
0100
,  // measure 81
1000
0000
0100
0000
0001
0010
0000
0100
0000
0000
0000
1000
0000
0010
0001
0100
,  // measure 82
1000
0000
0010
0000
0100
1000
0001
0010
0000
0001
0100
0001
0000
0010
0100
0001
,  // measure 83
1000
0200
0000
0000
0000
0300
0001
0200
,  // measure 84
0300
0000
0000
0000
0100
0000
0001
0000
0000
1000
0100
0001
0000
0010
1000
0100
,  // measure 85
0001
0000
0010
0000
0001
0100
0000
0001
,  // measure 86
0000
0100
0001
0100
0001
0000
0001
0100
,  // measure 87
1000
0100
0000
0010
0000
1000
0100
0001
,  // measure 88
0010
0000
0001
0000
0010
0000
0001
0100
,  // measure 89
1000
0001
0000
0200
0000
0000
0000
0000
,  // measure 90
0000
0000
0000
0000
0000
0000
0300
0100
,  // measure 91
0000
0001
0000
2000
0000
0000
0000
0000
,  // measure 92
3000
0000
1000
0001
0100
1000
0100
0010
0001
1000
0001
0100
1000
0000
0010
0000
,  // measure 93
0001
0010
1000
0001
0100
0010
0001
0100
,  // measure 94
0001
0100
0010
0001
1000
0001
0100
0010
,  // measure 95
0001
0100
0001
0100
0010
0001
1000
0001
,  // measure 96
0100
0010
0001
0100
0001
0100
0010
0001
,  // measure 97
1000
0001
0100
0010
0001
1000
0001
0100
,  // measure 98
0010
0001
0100
0001
0100
0010
0001
1000
,  // measure 99
0001
0100
0010
0001
0100
0001
0100
0010
,  // measure 100
0001
0000
1000
0000
0001
0000
0100
0000
0010
0100
0001
0010
0100
0010
0001
0100
,  // measure 101
0100
0001
0010
0100
0001
0000
1000
0000
0100
0000
0001
0000
0100
0000
0010
0000
,  // measure 102
0001
0100
0001
0100
0010
0001
1000
0001
,  // measure 103
0100
0010
0001
1000
0001
0100
1000
0100
,  // measure 104
0100
0100
0100
0001
0100
0010
0001
0100
,  // measure 105
0001
0100
0010
0001
1000
0001
0100
0010
,  // measure 106
0001
0100
0001
0100
0010
0001
1000
0001
,  // measure 107
0100
0010
0001
0100
0001
0100
0010
0001
,  // measure 108
1000
0000
0001
0000
0100
0000
0010
0000
0001
0100
0010
0001
1000
0001
0100
0010
,  // measure 109
0001
1000
0001
0100
1000
0000
0001
0000
0100
0000
0010
0000
0001
0000
1000
0000
,  // measure 110
0001
0100
0010
0001
0100
0001
0100
0010
,  // measure 111
0001
0100
0001
0100
0010
0001
0100
0001
,  // measure 112
0100
0010
0001
1000
0001
0100
0010
0001
,  // measure 113
0100
0001
0100
0010
0001
0100
0001
0100
,  // measure 114
0010
0001
1000
0001
0100
0010
0001
0100
,  // measure 115
0001
0100
0010
0001
1000
0001
0100
0010
,  // measure 116
0001
0000
1000
0000
0001
0000
0100
0000
0010
0001
0100
0001
0100
0001
0100
0010
,  // measure 117
0001
1000
0001
0100
1000
0000
0001
0000
0100
0000
0010
0000
0001
0000
0100
0000
,  // measure 118
0001
0100
0010
0001
1000
0001
0100
0010
,  // measure 119
0001
0100
0001
0100
0001
0100
0001
0100
,  // measure 120
0001
0100
0001
0100
0001
0100
0010
0001
,  // measure 121
1000
0001
0100
0010
0001
1000
0001
0100
,  // measure 122
0010
0001
1000
0001
0100
0010
0001
1000
,  // measure 123
0001
0100
0010
0001
1000
0001
0100
0010
,  // measure 124
0001
1000
0001
0100
0000
0000
0000
0000
,  // measure 125
0000
0100
0001
0000
0000
0000
0000
0000
;
