#TITLE:heronie;
#SUBTITLE:;
#ARTIST:Maroon 5;
#TITLETRANSLIT:;
#SUBTITLETRANSLIT:;
#ARTISTTRANSLIT:;
#GENRE:;
#CREDIT:;
#BANNER:;
#BACKGROUND:;
#LYRICSPATH:;
#CDTITLE:;
#MUSIC:Maroon 5 - Heroine (Official Lyric Video).ogg;
#OFFSET:0.000000;
#SAMPLESTART:100.059883;
#SAMPLELENGTH:12.000000;
#SELECTABLE:YES;
#BPMS:0.000000=121.000000
,44.000000=120.000000
,124.000000=121.000000
,240.000000=120.000000
;
#STOPS:0.000000=0.300000
;
#BGCHANGES:;
#KEYSOUNDS:;
#ATTACKS:;

//---------------dance-single - ----------------
#NOTES:
     dance-single:
     :
     Hard:
     11:
     0.404136,0.520358,0.106164,0.074939,0.074939,453.000000,436.000000,17.000000,12.000000,0.000000,0.000000,0.404136,0.520358,0.106164,0.074939,0.074939,453.000000,436.000000,17.000000,12.000000,0.000000,0.000000:
// measure 0
0000
0000
0000
0000
,  // measure 1
0000
0000
0000
0000
,  // measure 2
0000
0000
0000
0000
,  // measure 3
0000
0000
0000
0000
,  // measure 4
0100
0010
0100
0001
0010
0001
1000
0001
,  // measure 5
0100
0000
0010
0000
0100
0001
0100
0000
,  // measure 6
0010
0001
1000
0001
0100
0000
0000
0010
,  // measure 7
0001
0010
0100
0001
0100
1000
0000
0000
,  // measure 8
0010
0100
0001
0100
1000
0010
0001
1000
,  // measure 9
0001
0000
0010
0000
0100
0001
0100
0000
,  // measure 10
0001
1000
0001
0100
0010
0000
0000
0100
,  // measure 11
0010
0001
0100
0001
0100
1000
0000
0000
,  // measure 12
0100
1000
0001
0100
0010
0000
0100
0001
,  // measure 13
0100
0010
1000
0000
0001
0100
0001
0100
,  // measure 14
0001
0000
0000
0000
0000
0000
0100
0010
,  // measure 15
0000
0001
0100
0000
1000
0000
0010
0000
,  // measure 16
0001
1000
0001
0100
0001
0000
0100
0010
,  // measure 17
0001
0100
1000
0000
0010
0001
0100
1000
,  // measure 18
0000
2002
0000
0000
,  // measure 19
0000
0000
0000
3003
,  // measure 20
0100
1000
0001
0100
0010
0100
0001
0100
,  // measure 21
0010
0001
0100
0010
0001
1000
0001
0100
,  // measure 22
0100
0010
0110
0000
1000
0001
0100
0010
,  // measure 23
0200
0000
0000
0300
0001
0010
0000
0000
,  // measure 24
0010
0100
0010
0001
0100
0001
0100
0010
,  // measure 25
0100
0001
0010
0100
0010
0001
1000
0001
,  // measure 26
0100
0010
1001
0000
1000
0001
0100
0010
,  // measure 27
0200
0000
0000
0000
0300
0000
0000
0000
0010
0000
0100
0010
0100
0001
1000
0100
,  // measure 28
0010
0001
0100
0000
0010
0000
0001
1000
,  // measure 29
0100
0000
0100
0010
0010
0000
1000
0001
,  // measure 30
0010
0100
1001
0000
0010
0000
0001
0100
,  // measure 31
1000
0000
0100
0010
0001
0000
1000
0000
,  // measure 32
0001
0100
0010
0000
0100
0000
0001
0010
,  // measure 33
0100
0000
0001
1000
0001
0000
0100
0010
,  // measure 34
0000
0000
1001
0000
0100
0010
0100
0001
,  // measure 35
2000
0000
0000
0000
3000
0000
0000
0000
0001
0000
0100
0010
0100
0001
1000
0001
,  // measure 36
0010
0100
0010
0001
0100
0001
0100
1000
,  // measure 37
0001
0000
0100
0000
0100
0001
0010
0000
,  // measure 38
0100
0010
0001
0100
0001
0000
0000
0001
,  // measure 39
0100
0000
0010
0001
0100
0010
0000
0000
,  // measure 40
0100
0010
0100
0001
1000
0001
0010
0100
,  // measure 41
0001
0000
0010
0100
0001
1000
0100
0000
,  // measure 42
0010
0100
0001
0100
1000
0000
0100
0010
,  // measure 43
0010
0001
0100
0001
0100
1000
0000
0000
,  // measure 44
0010
0100
0001
0100
1000
0000
0100
0001
,  // measure 45
1000
0001
0010
0000
0100
0001
0100
0001
,  // measure 46
0010
0000
0000
0000
0000
0000
0100
0010
,  // measure 47
0000
0100
0001
0000
1000
0000
0000
0000
,  // measure 48
0001
1000
0001
0100
0010
0000
0001
1000
,  // measure 49
0001
0100
0010
0000
0001
0100
0010
0100
,  // measure 50
0000
2002
0000
0000
,  // measure 51
0000
0000
0000
3003
,  // measure 52
0010
0100
0001
0100
1000
0010
0100
0001
,  // measure 53
0010
0010
0100
0010
0001
0100
0001
0100
,  // measure 54
1000
0001
1001
0000
1000
0001
0010
0100
,  // measure 55
0200
0000
0300
0000
0010
0100
0000
0000
,  // measure 56
0010
0100
0010
0001
0100
0001
0100
0010
,  // measure 57
0001
0100
0001
0100
0010
0001
1000
0001
,  // measure 58
0100
0010
1001
0000
0001
0100
0001
0100
,  // measure 59
2000
0000
0000
0000
3000
0000
0000
0000
0010
0000
0100
0010
0100
0001
1000
0001
,  // measure 60
0010
0000
0100
0000
0010
0000
0100
0001
,  // measure 61
1000
0000
0001
0100
0010
0000
0100
0001
,  // measure 62
0010
0000
1001
0000
0010
0000
0100
0001
,  // measure 63
0010
0000
0010
0001
0100
0000
1000
0000
,  // measure 64
1000
0001
0100
0000
0010
0000
0001
0100
,  // measure 65
1000
0000
0010
0001
0100
0000
0000
0000
,  // measure 66
0000
0000
1001
0000
1000
0001
0100
0010
,  // measure 67
0200
0000
0000
0000
0300
0000
0000
0000
0100
0000
0100
0000
0010
0100
0001
1000
,  // measure 68
0100
0000
1000
0001
0100
0000
0010
0100
0001
0000
1000
0000
0000
0000
0010
0001
,  // measure 69
0100
0000
0010
0000
0100
0000
0001
1000
0000
0000
0110
0000
0000
0000
0101
0000
,  // measure 70
0000
0000
0010
0001
0100
0000
0010
0001
0100
0000
0001
0000
0000
0000
1000
0001
,  // measure 71
0100
0000
0010
0001
0100
0000
0010
0100
0000
0000
0101
0000
0000
0000
1001
0000
,  // measure 72
0000
0000
0010
0001
0100
0000
0001
0010
0100
0000
0010
0000
0000
0000
0100
0001
,  // measure 73
0010
0000
1000
0000
0100
0000
0001
0010
0000
0000
0101
0000
0000
0000
0101
0000
,  // measure 74
0100
0010
0001
0010
0010
0001
0100
0010
,  // measure 75
2002
0000
0000
3003
;
