#TITLE:hello xo;
#SUBTITLE:;
#ARTIST:RESCENE;
#TITLETRANSLIT:;
#SUBTITLETRANSLIT:;
#ARTISTTRANSLIT:;
#GENRE:;
#CREDIT:;
#BANNER:;
#BACKGROUND:;
#LYRICSPATH:;
#CDTITLE:;
#MUSIC:Hello XO.ogg;
#OFFSET:0.000000;
#SAMPLESTART:100.059883;
#SAMPLELENGTH:12.000000;
#SELECTABLE:YES;
#BPMS:0.000000=124.999992
;
#STOPS:0.000000=0.050000
;
#BGCHANGES:;
#KEYSOUNDS:;
#ATTACKS:;

//---------------dance-single - ----------------
#NOTES:
     dance-single:
     :
     Hard:
     11:
     0.424250,0.564518,0.307623,0.100569,0.094653,502.000000,450.000000,52.000000,17.000000,0.000000,0.000000,0.424250,0.564518,0.307623,0.100569,0.094653,502.000000,450.000000,52.000000,17.000000,0.000000,0.000000:
// measure 0
0000
0000
0000
0000
,  // measure 1
0000
0000
0000
0000
,  // measure 2
0000
0000
0000
0000
,  // measure 3
0000
0000
0000
0000
,  // measure 4
0010
0000
0001
0100
0010
0001
1000
0001
,  // measure 5
0100
0000
0001
0100
0001
1000
0100
0010
,  // measure 6
0010
0001
0100
0001
1000
0001
0100
0010
,  // measure 7
1000
0000
0000
0001
0000
0010
0100
0000
0110
0000
0110
0000
0110
0000
0000
0000
,  // measure 8
1001
0000
0001
1000
0001
0100
1000
0000
,  // measure 9
0100
0001
1000
0001
0001
0100
1000
0000
,  // measure 10
0100
0010
0001
1000
0001
0100
0001
0000
,  // measure 11
0000
0100
0010
0001
1000
0001
0100
2002
,  // measure 12
3003
0000
0001
0100
0001
0100
1000
0000
,  // measure 13
0100
0010
0001
1000
0001
0100
0010
0000
,  // measure 14
0100
0010
0001
1000
0001
0100
0010
0000
,  // measure 15
0000
0100
0010
0001
1000
0001
0100
2000
,  // measure 16
0000
0000
0000
3000
0000
0100
0001
2000
,  // measure 17
0000
0000
0000
0000
3000
0001
0100
2000
,  // measure 18
0000
0000
0000
0000
0000
3000
0000
0100
,  // measure 19
0100
0010
0001
1000
0001
0100
1000
0000
,  // measure 20
1001
0000
0001
1000
0001
0100
1000
0010
,  // measure 21
0000
0000
0001
0100
0001
1000
0100
0010
,  // measure 22
0000
0100
0010
0001
1000
0001
0100
1000
,  // measure 23
0010
0000
0000
0001
0000
0100
0010
0000
0110
0000
0110
0000
0110
0000
0000
0000
,  // measure 24
0000
0000
0001
1000
0001
0100
1000
0010
,  // measure 25
0000
0000
0010
0001
1000
0001
0100
0001
,  // measure 26
0000
0100
0010
0001
1000
0001
0100
0010
,  // measure 27
1000
0000
0000
0010
0000
0001
0100
0000
0110
0000
0110
0000
0110
0000
0000
0000
,  // measure 28
0000
0100
0010
0001
1000
0001
0010
0100
,  // measure 29
0000
0000
0010
0001
1000
0001
0100
1000
,  // measure 30
0000
0010
0001
1000
0001
0100
1000
0100
,  // measure 31
0010
0000
0000
0001
0000
0100
0010
0000
1001
0000
1001
0000
1001
0000
0000
0000
,  // measure 32
0110
0000
0001
1000
0001
0100
1000
0000
,  // measure 33
0100
0010
0001
1000
0001
0100
1001
0000
,  // measure 34
0110
0010
0001
1000
0001
0100
0010
0000
,  // measure 35
0001
0100
0010
0001
1000
0001
0100
1000
,  // measure 36
0100
0000
0000
0001
0000
1000
0100
0000
0001
0000
0010
0000
0000
0000
0000
0000
,  // measure 37
0100
0000
0000
0010
0000
0100
0001
1000
0001
0000
0000
0000
0000
0000
0010
0000
,  // measure 38
0011
0000
0000
0100
0000
0001
1000
0000
0011
0000
0000
0110
0000
0000
0101
0000
,  // measure 39
1000
0100
0001
1000
0101
0000
0101
0220
,  // measure 40
0000
0000
0000
0000
0330
0001
1000
0200
,  // measure 41
0000
0000
0000
0000
0300
0001
0100
2000
,  // measure 42
0000
0000
0000
0000
0000
3000
0000
0010
,  // measure 43
0001
1000
0001
0100
0001
1000
0100
0000
,  // measure 44
0110
0000
0010
0001
1000
0001
0100
1000
,  // measure 45
0000
0000
0010
0001
0100
0001
1000
0100
,  // measure 46
0000
0001
1000
0001
0100
0001
1000
0100
,  // measure 47
0001
0000
0000
0100
0000
0010
0001
0000
1001
0000
1001
0000
1001
0000
0000
0000
,  // measure 48
0000
0000
0010
0001
1000
0001
0100
1000
,  // measure 49
0000
0000
0010
0001
1000
0001
0100
1000
,  // measure 50
0000
0010
0100
0001
1000
0001
0010
0100
,  // measure 51
0001
0000
0000
0010
0000
0100
0001
0000
1001
0000
1001
0000
1001
0000
0000
0000
,  // measure 52
0001
0100
0001
0100
,  // measure 53
0010
0001
1000
0001
,  // measure 54
0100
0010
0001
1000
,  // measure 55
0001
0100
0020
0030
,  // measure 56
0001
0100
0010
0001
,  // measure 57
1000
0001
0100
0010
,  // measure 58
0001
1000
0001
0100
,  // measure 59
1000
0001
0200
0000
,  // measure 60
0000
0000
0000
0300
,  // measure 61
1001
0000
0010
0100
0001
1000
0001
0010
,  // measure 62
0000
0000
0100
0001
1000
0001
0010
0100
,  // measure 63
0000
0001
0010
0100
0001
1000
0001
0010
,  // measure 64
0001
0000
0000
0010
0000
0100
0001
0000
1001
0000
1001
0000
1001
0000
0000
0000
,  // measure 65
0000
0000
0010
0001
1000
0001
0100
1000
,  // measure 66
0000
0000
0010
0001
1000
0001
0100
1000
,  // measure 67
0000
0010
0100
0001
1000
0001
0010
0100
,  // measure 68
0001
0000
0000
0010
0000
0100
0001
0000
1001
0000
1001
0000
1001
0000
0000
0000
,  // measure 69
1000
0001
0100
0001
,  // measure 70
0001
0100
0010
0001
,  // measure 71
1000
0001
0100
0010
,  // measure 72
1000
0000
0000
0001
0000
0010
0100
0000
0110
0000
0110
0000
0110
0000
0000
0000
,  // measure 73
0100
0010
0001
1000
,  // measure 74
0001
0100
0010
0001
,  // measure 75
1000
0001
0100
0010
,  // measure 76
0001
0000
0000
0100
0000
0010
0001
0000
0110
0000
0110
0000
0110
0000
0000
0000
,  // measure 77
1001
0100
0010
0001
,  // measure 78
0001
0001
0100
0010
,  // measure 79
0001
1000
0001
0100
,  // measure 80
0010
0000
0000
1000
0000
0100
0001
0000
1001
0000
1001
0000
1001
0000
0000
0000
,  // measure 81
0020
0000
0030
0000
0200
0000
0300
0001
,  // measure 82
2000
0000
0000
0000
,  // measure 83
0020
0000
0000
3030
,  // measure 84
0100
0000
0000
0001
0000
0010
0100
0000
1001
0000
1001
0000
2002
0000
0000
0000
,  // measure 85
0000
0000
0000
0000
,  // measure 86
0000
0000
0000
3003
;
