#TITLE:heartbreak heard around the world;
#SUBTITLE:;
#ARTIST:Jacob Latimore & T Pain;
#TITLETRANSLIT:;
#SUBTITLETRANSLIT:;
#ARTISTTRANSLIT:;
#GENRE:;
#CREDIT:;
#BANNER:;
#BACKGROUND:;
#LYRICSPATH:;
#CDTITLE:;
#MUSIC:Jacob Latimore - Heartbreak Heard Around the World (Audio) ft. T-Pain.ogg;
#OFFSET:0.000000;
#SAMPLESTART:100.059883;
#SAMPLELENGTH:12.000000;
#SELECTABLE:YES;
#BPMS:0.000000=92.000000
;
#STOPS:0.000000=1.100000
;
#BGCHANGES:;
#KEYSOUNDS:;
#ATTACKS:;

//---------------dance-single - ----------------
#NOTES:
     dance-single:
     :
     Hard:
     12:
     0.435843,0.575193,0.038342,0.109548,0.660024,557.000000,550.000000,7.000000,20.000000,0.000000,0.000000,0.435843,0.575193,0.038342,0.109548,0.660024,557.000000,550.000000,7.000000,20.000000,0.000000,0.000000:
// measure 0
0000
0000
0000
0000
,  // measure 1
0000
0000
0000
0000
,  // measure 2
0000
0000
0000
0000
,  // measure 3
0000
0000
0000
0000
0000
0000
0000
0000
0000
0000
0000
1000
0000
0010
0010
1000
,  // measure 4
0010
0000
0000
0100
0000
0100
0001
1000
0100
0000
0000
0010
0000
0001
1000
0100
,  // measure 5
0000
0000
0010
0100
0000
0001
0000
0010
0000
0000
1000
0100
0000
0001
1000
0100
,  // measure 6
0010
0000
0000
0100
0000
0010
0001
0100
1000
0000
0000
0000
1000
0000
0001
0000
,  // measure 7
0100
0010
0000
0100
0000
0001
0000
1000
0100
0001
1000
0001
0010
0100
0001
0000
,  // measure 8
0010
0000
0000
0000
0001
1000
0100
0000
0000
0000
0000
0000
0010
0001
1000
0100
,  // measure 9
0000
0000
0010
0001
0000
1000
0000
0100
0000
0010
0100
0001
1000
0100
0001
0000
,  // measure 10
0010
0000
0000
0000
0001
0100
1000
0000
0100
0000
0000
0000
0001
0010
0100
0001
,  // measure 11
0000
0100
0000
0010
0000
0001
0000
0100
0000
0010
0001
0100
0001
1000
0100
0000
,  // measure 12
0020
0000
0000
0030
,  // measure 13
0100
0010
0001
0100
0001
0100
0001
1000
0100
0000
0010
0000
0100
0000
0000
0000
,  // measure 14
0002
0000
0000
0000
0000
0000
0000
0000
0000
0000
0000
0000
0003
0000
0000
0001
,  // measure 15
0100
0001
0100
0010
0001
1000
0001
0100
1000
0000
0010
0000
0100
0001
0000
0000
,  // measure 16
1000
0100
0001
0100
0000
0010
0000
0100
0001
0000
1000
0000
0100
0000
0010
0000
,  // measure 17
0100
0010
0001
1000
0001
0000
1000
0000
0001
0000
0010
0000
0100
0000
0001
0000
,  // measure 18
0220
0000
0000
0330
,  // measure 19
1000
0100
0001
0100
0001
0000
0010
0000
0100
0000
0010
0100
0000
0001
2000
0000
,  // measure 20
0000
0000
0000
3000
,  // measure 21
0100
0001
1000
0100
0001
0000
0010
0000
0000
0100
0001
0100
0000
0010
0000
0100
,  // measure 22
0000
0000
0000
0010
0000
1000
0100
0001
0000
0000
1001
0000
0100
0001
1000
0001
,  // measure 23
0000
0000
1000
0100
0000
0010
0000
0001
0000
1000
0100
0010
0001
0100
0001
0010
,  // measure 24
0000
0001
0100
1000
0100
0010
0001
1000
0000
0000
0000
0000
0100
0001
1000
0001
,  // measure 25
0000
0000
0100
0001
0000
0010
0000
0100
0010
0100
0001
1000
0001
0010
0100
0001
,  // measure 26
0010
0000
0000
0000
0001
0100
1000
0000
0010
0000
0000
0000
0100
0001
1000
0100
,  // measure 27
0000
0000
0010
0001
0000
1000
0000
0100
0000
0001
0000
1000
0000
0100
0001
1000
,  // measure 28
0001
0000
0000
0000
0001
0100
1000
0000
0010
0000
0000
0000
1000
0100
0001
0100
,  // measure 29
0000
0001
0000
0100
0000
0010
0000
0001
0000
0100
0010
0100
0001
1000
0001
0000
,  // measure 30
0020
0000
0000
0000
0000
0000
0000
0000
0030
0000
1000
1000
0000
0000
0100
0000
,  // measure 31
0001
0010
0100
0001
1000
0001
0010
0100
0001
0000
0001
0000
0100
0000
1000
0000
,  // measure 32
0200
0000
0000
0000
0000
0000
0000
0000
0000
0000
0000
0000
0300
0000
0000
0100
,  // measure 33
0010
0001
0100
0010
0001
1000
0001
0100
1000
0000
0001
0000
0010
0100
0001
0000
,  // measure 34
1000
0100
0000
0001
0000
0010
0000
0100
0001
0000
1000
0000
0010
0000
0000
0000
,  // measure 35
0100
0001
1000
0001
0010
0000
0001
0000
0100
0000
0010
0000
1000
0001
0100
0000
,  // measure 36
0220
0000
0000
0330
,  // measure 37
1000
0100
0001
0100
0001
0000
0010
0000
0100
0000
0001
1000
0000
0100
0001
0000
,  // measure 38
0001
0100
0001
1000
0100
0001
1000
0001
0100
0001
0100
0010
0001
0100
0001
0100
,  // measure 39
0001
1000
0100
0000
0001
0000
0010
0000
2000
0000
0000
0000
3000
0000
0000
0000
,  // measure 40
0010
0001
1000
0001
0100
0000
0000
0010
0100
0001
0010
0100
0010
0100
0001
0100
,  // measure 41
1000
0010
0001
0100
0010
1000
0001
1000
0100
0010
0100
0001
1000
0000
0100
0001
,  // measure 42
0010
0100
0010
0100
0001
0100
1000
0000
1000
0100
0001
0100
0001
0000
0010
0001
,  // measure 43
0100
0001
0100
0010
0001
1000
0001
0100
1000
0001
0100
0010
0001
0000
0100
0001
,  // measure 44
0100
0001
0100
0010
0001
1000
0001
0100
1000
0000
0001
0000
0100
0000
0000
0010
,  // measure 45
0001
1000
0001
0100
0001
0100
0000
1000
0000
0100
0001
0100
0001
1000
0001
0000
,  // measure 46
0020
0000
0000
0000
,  // measure 47
0000
0000
0000
0000
0000
0000
0030
0100
,  // measure 48
0200
0000
0000
0300
,  // measure 49
0020
0000
0000
0000
0030
0000
0000
0000
0000
0100
0001
1000
0001
0010
0100
0000
,  // measure 50
0220
0000
0000
0330
,  // measure 51
1000
0100
0001
0100
0001
0010
0100
0010
0001
0000
1000
0000
0001
0000
0100
0000
,  // measure 52
2000
0000
0000
0000
0000
0000
0000
0000
3000
0000
0100
0001
1000
0000
0100
0001
,  // measure 53
0010
0100
0010
0001
1000
0001
0100
0010
1000
0100
0001
0100
0001
0010
0100
0001
,  // measure 54
0100
0010
0001
0100
0000
0010
0000
0100
0001
0000
1000
0000
0100
0000
0110
0000
,  // measure 55
0001
0100
0001
0100
1000
0000
0010
0100
0001
0000
0010
0000
0100
0001
0010
0000
,  // measure 56
0220
0000
0000
0330
,  // measure 57
0001
0100
0001
1000
0100
0000
0010
0000
0001
0000
0010
0100
0000
0100
0001
0000
,  // measure 58
1001
0000
0000
0000
0000
0000
0100
0001
0010
0000
0000
0000
0100
0000
0000
0000
,  // measure 59
0010
0100
0001
1000
0001
0000
0010
0001
0100
0000
0010
0100
0001
0100
0010
0000
,  // measure 60
0000
0000
0000
0000
0000
0000
0001
0010
0100
0000
0010
0000
0100
0001
0010
0000
,  // measure 61
0100
0001
0100
0010
0001
0000
0100
0010
0100
0000
0010
0001
0010
0100
1000
0000
,  // measure 62
0002
0010
0000
0103
,  // measure 63
0010
0001
0100
1000
0001
0000
0100
0000
0010
0000
0001
0100
0000
0010
0001
0100
,  // measure 64
1000
0100
0001
1000
0001
0000
0000
0010
0001
0100
0001
0100
1000
0000
0000
0000
,  // measure 65
0001
0100
0010
0001
0100
0000
1000
0000
0001
0000
0100
0010
0000
0100
0002
0000
,  // measure 66
0000
0000
0000
0000
,  // measure 67
0000
0000
0000
0003
;
