#VERSION:0.83;
#TITLE:having anixtey is annoying;
#SUBTITLE:;
#ARTIST:Slayr;
#TITLETRANSLIT:;
#SUBTITLETRANSLIT:;
#ARTISTTRANSLIT:;
#GENRE:;
#ORIGIN:;
#CREDIT:;
#BANNER:;
#BACKGROUND:;
#PREVIEWVID:;
#JACKET:;
#CDIMAGE:;
#DISCIMAGE:;
#LYRICSPATH:;
#CDTITLE:;
#MUSIC:slayr - having anxiety is annoying (Official Visualizer).ogg;
#OFFSET:0.000000;
#SAMPLESTART:100.059883;
#SAMPLELENGTH:12.000000;
#SELECTABLE:YES;
#BPMS:0.000=146.000,
216.000=145.000,
224.000=146.000,
256.000=73.000,
288.000=146.000;
#STOPS:0.000=0.100;
#DELAYS:;
#WARPS:;
#TIMESIGNATURES:0.000=4=4;
#TICKCOUNTS:0.000=4;
#COMBOS:0.000=1;
#SPEEDS:0.000=1.000=0.000=0;
#SCROLLS:0.000=1.000;
#FAKES:;
#LABELS:0.000=Song Start;
#BGCHANGES:;
#KEYSOUNDS:;
#ATTACKS:
;

//---------------dance-single - ----------------
#NOTEDATA:;
#CHARTNAME:;
#STEPSTYPE:dance-single;
#DESCRIPTION:;
#CHARTSTYLE:;
#DIFFICULTY:Hard;
#METER:14;
#RADARVALUES:0.548698,1.089207,0.331221,0.127393,0.423580,603.000000,551.000000,52.000000,20.000000,0.000000,0.000000,0.000000,0.000000,0.000000,0.548698,1.089207,0.331221,0.127393,0.423580,603.000000,551.000000,52.000000,20.000000,0.000000,0.000000,0.000000,0.000000,0.000000;
#CREDIT:;
#NOTES:
// measure 0
0000
0000
0000
0000
,  // measure 1
0000
0000
0000
0000
,  // measure 2
1001
0000
0000
0000
0100
0001
0100
0010
,  // measure 3
0100
0000
0001
1000
0000
0100
0001
0010
,  // measure 4
0220
0000
0330
0000
0110
0001
1000
0001
,  // measure 5
0110
0000
0101
0000
0101
0000
1000
0100
,  // measure 6
2002
0000
3003
0000
1001
0010
0100
0001
,  // measure 7
0220
0000
0000
0000
0330
0001
1000
0001
,  // measure 8
0200
0000
0000
0000
0300
0000
0010
0100
,  // measure 9
0002
0000
0000
0000
0003
1000
0100
0001
,  // measure 10
0020
0000
0000
0000
0030
0000
0100
0001
,  // measure 11
0020
0000
0000
0000
0000
0000
0030
0010
0100
0001
1000
0001
,  // measure 12
0110
0000
0000
0000
0000
0000
0100
0010
0001
1000
0001
0100
,  // measure 13
1000
0000
0000
0000
0000
0000
0000
0000
0000
0000
0000
0000
0100
0000
0000
0000
0000
0000
0000
0000
0000
0001
0000
0000
0100
0000
0000
0000
0010
0000
0000
0000
0001
0000
0000
0000
0100
0000
0000
0000
0001
0000
0000
0000
0100
0000
0000
0000
,  // measure 14
1000
0000
0000
0000
0000
0000
0010
0001
0100
0001
1000
0100
,  // measure 15
0010
0000
0000
0000
0100
0000
0000
0001
0010
0000
0000
0000
0100
0000
0000
0001
,  // measure 16
1000
0000
0000
0000
0011
0000
0000
0000
0100
0000
0000
0010
0100
0000
0000
0001
,  // measure 17
1000
0000
0010
0100
0000
0001
1000
0001
,  // measure 18
1001
0000
1001
0000
0001
0100
0001
0100
,  // measure 19
1000
0000
0001
0100
0000
0001
1000
0100
,  // measure 20
1001
0000
1001
0000
0001
0100
0001
0100
,  // measure 21
1000
0000
0100
0010
0000
0010
0001
0100
,  // measure 22
1001
0000
1001
0000
0001
0100
0001
0100
,  // measure 23
1000
0000
0000
0100
0000
0010
0100
0001
,  // measure 24
1001
0000
0101
0000
0001
0100
0001
0100
,  // measure 25
1000
0000
0000
0000
0001
0100
0001
0100
,  // measure 26
1000
0000
0101
0101
0101
0010
0001
0110
,  // measure 27
0100
0000
0101
0101
0101
0100
1000
0010
,  // measure 28
0100
0000
0110
0000
0001
1000
0100
0010
,  // measure 29
0010
0000
0000
0100
0001
0000
0010
0000
0001
0000
0100
0000
0001
0000
0100
0000
,  // measure 30
1000
0000
0101
0000
0010
0100
0001
1000
,  // measure 31
0001
0000
0000
0100
0010
0000
0001
0000
0010
0000
0100
0000
0010
0000
0001
0000
,  // measure 32
1001
0000
0000
0001
0110
0000
0010
0100
,  // measure 33
0001
0000
0000
1000
0100
0000
0010
0000
0110
0000
0000
0000
0100
0000
0010
0000
,  // measure 34
0100
0000
0000
0010
0001
0000
0100
0000
0110
0000
0000
0000
0001
0000
0100
0000
,  // measure 35
1000
0000
0000
0100
0010
0000
0100
0000
0010
0000
0000
0000
0100
0001
0100
0001
,  // measure 36
0010
0000
0000
0010
0000
0000
0100
0000
0000
0001
0000
0000
1000
0000
0000
0000
,  // measure 37
0010
0000
0000
0001
0000
0000
0100
0000
0000
0010
0000
0000
0010
0100
0001
0000
,  // measure 38
0100
0000
0000
0010
0000
0000
0001
0000
0000
0100
0000
0000
1000
0000
0000
0000
,  // measure 39
0100
0000
0000
0010
0001
0000
0100
0000
0000
0010
0000
0000
0100
0000
0001
0000
,  // measure 40
0100
0000
0101
0000
0100
0100
0101
0000
,  // measure 41
1000
0000
0000
0100
0001
0000
0010
0000
0000
0100
0000
0000
0001
0000
0010
0000
,  // measure 42
0100
0000
0110
0000
0010
0100
0110
0000
,  // measure 43
0100
0000
0000
0010
0000
0000
0100
0000
0000
0001
0000
0000
0010
0000
0100
0000
,  // measure 44
0001
0010
0100
0001
0110
1000
0010
0100
,  // measure 45
0001
0000
0100
0000
0010
0000
0100
0000
0001
0000
1000
0000
0001
0010
0100
0001
,  // measure 46
1000
0001
0101
0000
0010
0100
0101
0000
,  // measure 47
0000
0001
0100
0010
0001
0100
0001
1000
,  // measure 48
0210
0000
0310
0000
0001
0100
0001
1000
,  // measure 49
0220
0000
0000
0000
0330
0001
0100
0010
,  // measure 50
2002
0000
0000
0000
3003
0000
1000
0100
,  // measure 51
0220
0000
0000
0330
0000
0000
0000
0001
0100
0001
1000
0001
,  // measure 52
0010
0000
0000
0000
0000
0000
0000
0010
0001
0100
0001
0100
,  // measure 53
1000
0000
0000
0000
0000
0000
0000
0000
0000
0000
0000
0000
0010
0000
0000
0000
0000
0000
0000
0000
0000
0100
0000
0000
0001
0000
0000
0000
0010
0000
0000
0000
0100
0000
0000
0000
0001
0000
0000
0000
1000
0000
0000
0000
0001
0000
0000
0000
,  // measure 54
0010
0000
0000
0010
0000
0000
0100
0010
0100
0001
0010
0100
,  // measure 55
0001
0000
0000
0000
0001
0000
0000
0010
0100
0000
0000
0000
0001
0000
0000
0010
,  // measure 56
0100
0001
0100
0010
1001
0001
0100
0010
,  // measure 57
0101
0100
0010
0010
0101
0001
0100
0010
,  // measure 58
1001
0010
0100
0010
1001
0010
0100
0001
,  // measure 59
0101
0010
0100
0001
1010
0001
0010
0100
,  // measure 60
0110
0010
0100
0010
0001
1000
0001
0100
,  // measure 61
0010
0001
0100
0001
0100
0010
0001
1000
,  // measure 62
0001
0100
0010
0001
0100
0001
0100
0010
,  // measure 63
0001
0100
0010
0001
1000
0001
0100
0010
0001
0000
0100
0000
0001
0000
0100
0000
,  // measure 64
1000
0000
0100
0010
0001
0100
0001
0010
0001
0000
0100
0010
0001
0100
0001
0100
,  // measure 65
1000
0000
0100
0010
0001
0100
0001
0100
1000
0000
0100
0010
0001
1000
0001
0100
,  // measure 66
1000
0000
0100
0010
0001
0100
0001
0100
1000
0000
0100
0010
0001
0100
0001
0100
,  // measure 67
1000
0000
0100
0001
1000
0001
0010
0100
0010
0000
0100
0001
1000
0001
0010
0100
,  // measure 68
1000
0000
0000
0000
0100
0001
0010
0000
0100
0010
0100
0000
0001
0010
0100
0001
0010
0100
1000
0000
0100
0001
0100
0000
0010
0100
0001
0000
1000
0100
0001
0010
,  // measure 69
0100
0000
0000
0000
0001
0010
0100
0000
0100
0010
0001
0000
0100
0010
0001
1000
0100
0001
0010
0000
0100
0000
0010
0000
0001
0000
1000
0000
0001
0000
0100
0000
,  // measure 70
1000
0000
0100
0001
0100
0001
0010
0100
0010
0100
0010
0100
0010
0001
0100
0001
,  // measure 71
0100
0000
0010
0000
0001
0000
1000
0000
0001
0000
0100
0000
0010
0000
0001
0100
1000
0000
0000
0000
0010
0000
0100
0000
0001
0000
0001
0000
0001
0000
0001
0000
,  // measure 72
0002
0000
0003
0000
0010
0001
0100
0010
,  // measure 73
0100
0000
0001
0010
0000
1000
0001
0100
,  // measure 74
0220
0000
0330
0000
0001
0100
0001
0100
,  // measure 75
1000
0000
0010
0100
0000
0100
0001
1000
,  // measure 76
0100
0000
0000
0000
;
