#TITLE:gut genig;
#SUBTITLE:;
#ARTIST: KITSCHKRIEG, Blumengarten, & Shirin David;
#TITLETRANSLIT:;
#SUBTITLETRANSLIT:;
#ARTISTTRANSLIT:;
#GENRE:;
#CREDIT:;
#BANNER:;
#BACKGROUND:;
#LYRICSPATH:;
#CDTITLE:;
#MUSIC:KITSCHKRIEG feat. BLUMENGARTEN & SHIRIN DAVID - GUT GENUG.ogg;
#OFFSET:0.000000;
#SAMPLESTART:100.059883;
#SAMPLELENGTH:12.000000;
#SELECTABLE:YES;
#BPMS:0.000000=122.000000
;
#STOPS:0.000000=0.100000
;
#BGCHANGES:0.000=KITSCHKRIEG feat. BLUMENGARTEN & SHIRIN DAVID - GUT GENUG.mp4=1.000=0=0=1=====,
99999=-nosongbg-=1.000=0=0=0 // don't automatically add -songbackground-
;
#KEYSOUNDS:;
#ATTACKS:;

//---------------dance-single - ----------------
#NOTES:
     dance-single:
     :
     Hard:
     12:
     0.467888,0.471871,0.000000,0.058203,0.542342,619.000000,619.000000,0.000000,11.000000,0.000000,0.000000,0.467888,0.471871,0.000000,0.058203,0.542342,619.000000,619.000000,0.000000,11.000000,0.000000,0.000000:
// measure 0
0000
0000
0000
0000
,  // measure 1
0000
0000
0000
0000
,  // measure 2
0000
0000
0000
0000
,  // measure 3
0000
0000
0000
0000
,  // measure 4
0100
0010
0001
0100
,  // measure 5
2000
0000
0000
0000
,  // measure 6
0000
0000
0000
0000
,  // measure 7
0000
0000
0000
0000
3000
0000
0000
0000
0001
0000
0100
0000
0010
0000
0001
0200
,  // measure 8
0010
0010
0010
0010
,  // measure 9
0010
0000
0000
0000
0010
0000
0300
0000
0001
0000
0100
0000
0010
0000
0100
0002
,  // measure 10
0010
0010
0010
0010
,  // measure 11
0010
0000
0000
0000
0010
0000
0003
0000
1000
0000
0100
0000
0001
0000
0010
0002
,  // measure 12
0100
0100
0100
0100
,  // measure 13
0100
0000
0000
0000
0103
0000
0000
0000
0001
0000
0100
0000
0010
0000
0001
0200
,  // measure 14
0010
0010
0010
0310
,  // measure 15
0020
0000
0000
0030
,  // measure 16
0100
0001
0000
0010
0000
0000
0100
0000
0001
1000
0000
0100
0000
0000
0001
0000
,  // measure 17
0010
0100
0000
0001
0000
0000
0010
0000
0010
0100
0000
0001
0000
0000
0010
0000
,  // measure 18
0100
0010
0000
0001
0000
0000
0100
0000
0001
0100
0000
1000
0000
0000
0001
0000
,  // measure 19
0100
0010
0000
0001
0000
0000
0010
0000
0100
0001
0000
1000
0000
0000
0100
0000
,  // measure 20
0010
0100
0000
0001
0000
0000
0010
0000
0100
0001
0000
1000
0000
0000
0100
0000
,  // measure 21
0010
0100
0000
0001
0000
0000
1000
0000
0100
0001
0000
0010
0000
0000
0100
0000
,  // measure 22
0010
0100
0000
0001
0000
0000
1000
0000
0100
0001
0000
0010
0000
0000
0100
0000
,  // measure 23
0020
0000
0000
0030
,  // measure 24
0010
0000
0001
0000
0100
0000
0001
0000
0100
0000
1000
0000
0100
0000
0000
0010
,  // measure 25
0100
0001
1000
0100
0001
0100
0001
0000
,  // measure 26
0100
0010
0001
0100
0001
0100
1000
0001
,  // measure 27
0100
0000
0010
0000
0001
0000
0100
0000
0001
0000
0100
0000
1000
0000
0000
0100
,  // measure 28
0010
0000
0001
0000
0100
0000
0001
0000
0100
0000
0000
0010
0100
0000
0000
0001
,  // measure 29
0010
0000
0000
0100
0001
0100
1000
0010
0100
0000
0000
0010
0000
0000
0000
0001
,  // measure 30
1000
0000
0100
0000
0001
0000
0010
0000
0100
0000
0000
0010
0001
0000
0010
0000
,  // measure 31
0100
0010
0001
0100
0001
0100
1000
0100
,  // measure 32
0010
0001
1000
0001
0100
0000
0100
0001
,  // measure 33
0100
1000
0000
0100
0000
0010
0001
0100
,  // measure 34
1000
0000
0010
0001
0100
0000
0010
0001
,  // measure 35
0100
1000
0000
0010
0000
0001
0100
1000
,  // measure 36
0100
0000
0001
0000
0100
0000
0001
0000
0010
0100
0000
0000
0001
0010
0000
0000
,  // measure 37
0100
0001
0000
0000
0010
0000
0000
0000
0100
0000
0000
0000
0010
0000
0100
0000
,  // measure 38
0010
0001
1000
0001
0100
0010
0001
0001
,  // measure 39
0010
0100
0000
0000
0001
0000
0000
0000
0100
0000
0000
0000
0000
0000
0000
0000
,  // measure 40
0010
0001
0100
0010
0001
0100
0001
0100
,  // measure 41
0010
0001
0100
0001
1000
0100
0100
0010
,  // measure 42
0100
0010
0001
0100
0010
0001
0100
0001
,  // measure 43
0100
0010
0001
0100
0001
1000
0100
0010
,  // measure 44
0100
0010
0001
1000
0001
0000
0100
0000
,  // measure 45
0010
0000
0000
0000
0000
0000
0000
0000
0000
0000
0000
0000
0100
0000
0000
0001
0000
0000
0000
0000
0000
0000
0000
0000
1000
0000
0000
0000
0000
0000
0000
0000
0000
0000
0000
0000
0100
0000
0000
0000
0001
0000
0000
0000
0010
0000
0000
0000
,  // measure 46
0100
0000
0000
0000
0010
0100
0000
0000
0001
0000
0000
0000
0010
0000
0000
0000
,  // measure 47
0001
0000
0000
0000
0010
0100
0000
0000
0010
0000
0100
0000
0001
0000
1000
0200
,  // measure 48
0010
0010
0010
0010
,  // measure 49
0010
0000
0000
0000
0310
0000
0000
0000
0001
0000
1000
0000
0100
0000
0010
0002
,  // measure 50
0010
0010
0010
0010
,  // measure 51
0010
0000
0000
0000
0013
0000
0000
0000
0001
0000
0100
0000
0010
0000
0100
0200
,  // measure 52
0001
0001
0001
0001
,  // measure 53
0001
0000
0000
0000
0001
0000
0300
0000
0010
0000
0100
0000
0100
0000
0001
2000
,  // measure 54
0100
0100
0100
0100
,  // measure 55
0100
0100
0100
3100
,  // measure 56
0000
0000
0000
0000
0000
0000
0000
0000
0100
0010
0000
0100
0000
0000
0001
0000
,  // measure 57
0010
0100
0000
0001
0000
0000
1000
0000
0100
0001
0000
0010
0000
0000
0100
0000
,  // measure 58
0010
0100
0000
0001
0000
0000
0010
0000
0100
0001
0000
1000
0000
0000
0100
0000
,  // measure 59
0010
0100
0000
0001
0000
0000
1000
0000
0100
0001
0000
0010
0000
0000
0100
0000
,  // measure 60
0010
0100
0000
0001
0000
0000
1000
0000
0100
0001
0000
0010
0000
0000
0100
0000
,  // measure 61
0001
0010
0000
0100
0000
0000
0001
0000
0100
0010
0000
0100
0000
0000
0001
0000
,  // measure 62
0010
0100
0000
0001
0000
0000
1000
0000
0001
0100
0000
1000
0000
0000
0100
0000
,  // measure 63
0010
0001
0000
0100
0000
0000
0010
0000
0001
0100
0000
1000
0000
0000
0100
0000
,  // measure 64
0010
0100
0000
0001
0000
0000
1000
0000
0100
0001
0000
0010
0000
0000
0100
0000
,  // measure 65
0001
0010
0000
0100
0000
0000
0001
0000
1000
0100
0000
0001
0000
0000
0010
0000
,  // measure 66
0100
0001
0000
0010
0000
0000
0100
0000
0001
1000
0000
0100
0000
0000
0001
0000
,  // measure 67
0010
0100
0000
0001
0000
0000
1000
0000
0010
0100
0000
0001
0000
0000
0010
0000
,  // measure 68
0100
0001
0000
0010
0000
0000
0100
0000
1000
0100
0000
0001
0000
0000
0010
0000
,  // measure 69
0100
0010
0000
0100
0000
0000
0001
0000
0010
0100
0000
0001
0000
0000
1000
0000
,  // measure 70
0001
0100
0000
0010
0000
0000
0001
0000
0010
0100
0000
0001
0000
0000
1000
0000
,  // measure 71
0100
0001
0000
0010
0000
0000
0100
0000
0001
0010
0000
0100
0000
0000
0001
0000
,  // measure 72
0010
0100
0000
0001
0000
0000
0010
0000
0100
0010
0000
0100
0000
0000
1000
0000
,  // measure 73
0001
0100
0000
0010
0000
0000
0001
0000
0010
0100
0000
0010
0000
0000
0001
0000
,  // measure 74
0010
0100
0000
0001
0000
0000
1000
0000
0100
0010
0000
0100
0000
0000
0001
0000
,  // measure 75
0010
0100
0000
0001
0000
0000
1000
0000
0100
0001
0000
0010
0000
0000
0100
0000
,  // measure 76
0010
0100
0000
0001
0000
0000
1000
0000
0100
0001
0000
0010
0000
0000
0100
0000
,  // measure 77
0010
0100
0000
0001
0000
0000
1000
0000
0100
0001
0000
0010
0000
0000
0100
0000
,  // measure 78
0010
0100
0000
0001
0000
0000
0010
0000
0100
0010
0000
1000
0000
0000
0100
0000
,  // measure 79
0001
0010
0000
0100
0000
0000
0001
0000
0010
0100
0000
0001
0000
0000
0010
0000
,  // measure 80
1000
0100
0000
0001
0000
0000
0010
0000
0100
0010
0000
0100
0000
0000
0001
0000
,  // measure 81
0010
0100
0000
1000
0000
0000
0100
0000
0001
0010
0000
0100
0000
0000
0001
0000
,  // measure 82
0010
0100
0000
0001
0000
0000
1000
0000
0100
0001
0000
0010
0000
0000
0100
0000
,  // measure 83
0001
0010
0000
0100
0000
0000
1000
0000
0100
0010
0000
0100
0000
0000
0010
0000
,  // measure 84
0001
0010
0000
0100
0000
0000
0001
0000
0010
0100
0000
0001
0000
0000
0010
0000
,  // measure 85
0100
0010
0000
1000
0000
0000
0100
0000
0001
0010
0000
0100
0000
0000
0010
0000
,  // measure 86
0010
0001
0000
0100
0000
0000
0010
0000
0100
0001
0000
1000
0000
0000
0100
0000
,  // measure 87
0001
0010
0000
0100
0000
0000
0001
0000
0010
0100
0000
0001
0000
0000
0010
0000
,  // measure 88
0100
0010
0000
0001
0000
0000
0100
0000
0010
0100
0000
1000
0000
0000
0100
0000
,  // measure 89
0001
0010
0000
0100
0000
0000
0001
0000
0010
0100
0000
0001
0000
0000
0010
0000
,  // measure 90
0100
0010
0000
0100
0000
0000
1000
0000
0100
0001
0000
0010
0000
0000
0100
0000
,  // measure 91
0001
0100
0000
0010
0000
0000
0001
0000
0100
0010
0000
0001
0000
0000
0100
0000
,  // measure 92
0010
0001
0000
0010
0000
0000
0100
0000
0100
0010
0000
0100
0000
0000
0001
0000
,  // measure 93
0010
0100
0000
1000
0000
0000
0100
0000
0001
0010
0000
0100
0000
0000
0001
0000
;
