#TITLE:glamourous;
#SUBTITLE:;
#ARTIST:Fergie & Ludacris;
#TITLETRANSLIT:;
#SUBTITLETRANSLIT:;
#ARTISTTRANSLIT:;
#GENRE:;
#CREDIT:;
#BANNER:;
#BACKGROUND:;
#LYRICSPATH:;
#CDTITLE:;
#MUSIC:Fergie - Glamorous ft. Ludacris.ogg;
#OFFSET:0.000000;
#SAMPLESTART:100.059883;
#SAMPLELENGTH:12.000000;
#SELECTABLE:YES;
#BPMS:0.000000=131.000000
;
#STOPS:0.000000=2.800000
;
#BGCHANGES:0.000=Fergie - Glamorous ft. Ludacris.mp4=1.000=0=0=1=====,
99999=-nosongbg-=1.000=0=0=0 // don't automatically add -songbackground-
;
#KEYSOUNDS:;
#ATTACKS:;

//---------------dance-single - ----------------
#NOTES:
     dance-single:
     :
     Hard:
     11:
     0.460053,0.648464,0.347178,0.115726,0.049882,807.000000,720.000000,87.000000,29.000000,0.000000,0.000000,0.460053,0.648464,0.347178,0.115726,0.049882,807.000000,720.000000,87.000000,29.000000,0.000000,0.000000:
// measure 0
0000
0000
0000
0000
,  // measure 1
0000
0000
0000
0000
,  // measure 2
0000
0000
0000
0000
,  // measure 3
0000
0000
0000
0000
0000
0000
0000
0100
,  // measure 4
0010
0100
0010
0001
1000
0001
0100
0010
,  // measure 5
1001
0000
1001
0000
1001
0100
0001
0100
,  // measure 6
0010
0001
0100
1000
0010
0001
0100
0010
,  // measure 7
0101
0101
0101
1001
,  // measure 8
1001
0000
0101
0000
,  // measure 9
1100
0000
0000
0101
0000
0000
0000
0000
,  // measure 10
0110
0000
1100
0000
,  // measure 11
0101
0101
0000
0101
0000
1001
0000
0000
,  // measure 12
1001
0000
1001
0000
,  // measure 13
0110
0000
0000
0101
0000
0000
0000
0000
,  // measure 14
1001
0000
1001
0000
,  // measure 15
0110
0110
0000
0110
0000
0001
1000
0100
,  // measure 16
0101
0202
0000
0303
,  // measure 17
0001
1000
0001
0100
1000
0000
0000
0000
,  // measure 18
0110
0220
0000
0330
,  // measure 19
0001
1000
0100
0001
0010
0000
0000
0000
,  // measure 20
1100
2200
0000
3300
,  // measure 21
0001
0100
0000
0010
0000
0000
0001
1000
,  // measure 22
0001
0100
1000
0000
0000
0010
0000
0100
,  // measure 23
0001
0000
0010
0100
0000
0000
1001
0000
,  // measure 24
0100
0010
0001
0000
0100
0000
0000
0100
,  // measure 25
0010
0001
0100
0001
0100
0010
0001
1000
,  // measure 26
0001
0100
1000
0000
0000
0010
0000
0100
,  // measure 27
0010
0000
0001
0100
0000
1001
0000
0010
,  // measure 28
0001
0100
1000
0000
0010
0000
0000
0100
,  // measure 29
0010
0001
0100
0001
0100
0010
0001
1000
,  // measure 30
0001
0100
1000
0000
0000
0100
0000
0010
,  // measure 31
0100
0000
0001
0010
0000
0220
0000
0330
,  // measure 32
0001
0100
0010
0000
0001
1000
0100
0000
,  // measure 33
0100
0010
0001
1000
0001
0100
1000
0000
,  // measure 34
0100
0010
0001
1000
0001
0100
1000
0000
,  // measure 35
0100
0010
0001
1000
0001
0100
0010
0000
,  // measure 36
0100
0010
0001
0100
0001
1000
0100
0000
,  // measure 37
0100
0010
0001
1000
0001
0100
0010
0000
,  // measure 38
0100
0010
0001
1000
0001
0100
0010
0000
,  // measure 39
0100
0001
0100
0010
1000
0001
0100
0000
,  // measure 40
0100
0010
0001
1000
0001
0100
0010
0000
,  // measure 41
0110
0000
0110
0000
0100
0010
1001
0000
,  // measure 42
0010
0100
1000
0000
0001
0100
0010
0000
,  // measure 43
0100
0000
0100
0001
0010
0000
0100
0001
1000
0100
0001
0000
0010
0000
0000
0000
,  // measure 44
0010
0000
0100
0001
0010
0000
0100
0000
0001
0000
1000
0100
0001
0000
0000
0000
,  // measure 45
0100
0000
0001
1000
0100
0000
0001
0000
0100
0000
0010
0100
0001
0000
0100
0000
,  // measure 46
0010
0000
0001
0000
0010
0000
1000
0100
0001
0010
0100
0010
0100
0000
0010
0100
,  // measure 47
0001
0000
1000
0100
0001
0000
0000
0000
0010
0000
0010
0000
0001
0000
0100
0000
,  // measure 48
1010
2020
0000
3030
,  // measure 49
0010
0100
0001
1000
0000
0000
0000
0000
,  // measure 50
0110
0220
0000
0330
,  // measure 51
0010
0001
0100
1000
0000
0000
0000
0000
,  // measure 52
0101
0202
0000
0303
,  // measure 53
0010
0100
0000
0010
0000
0000
0001
1000
,  // measure 54
0001
0100
1000
0000
0000
0100
0000
0010
,  // measure 55
0100
0000
0010
0100
0000
0000
1001
0001
,  // measure 56
1000
0100
0001
0000
0010
0000
0000
0001
,  // measure 57
1000
0001
0100
0010
0100
0001
0010
0001
,  // measure 58
1000
0001
0100
0000
0000
0010
0000
0100
,  // measure 59
0001
0000
0100
0010
0000
0001
0000
1000
,  // measure 60
0100
0001
0010
0000
0000
0000
0000
0100
,  // measure 61
0010
0001
0100
0001
0100
0010
0001
1000
,  // measure 62
0001
0100
1000
0000
0000
0010
0000
0001
,  // measure 63
0100
0000
0010
0100
0000
0100
1000
0100
,  // measure 64
0001
0001
0022
0033
,  // measure 65
0100
0001
0010
0000
2002
0000
3003
0000
,  // measure 66
0100
0001
0100
0000
0010
0100
0001
1000
,  // measure 67
0000
0001
0010
0000
2002
0000
3003
0000
,  // measure 68
0010
0001
0100
0000
0010
0000
0100
0001
,  // measure 69
0010
0000
0001
0100
1000
0000
0000
0100
,  // measure 70
0001
1000
0001
0000
0010
0100
0001
0100
,  // measure 71
0010
0000
0001
0100
1000
0000
0000
0000
,  // measure 72
0100
0001
0010
0100
0001
1000
0100
0000
0001
0000
0010
0000
0100
0000
0010
0000
,  // measure 73
1000
0000
0001
0000
0100
0000
0010
0000
0100
0000
0010
0000
0100
0000
0000
0001
,  // measure 74
0000
1000
0100
0001
0010
0010
0001
1000
,  // measure 75
0001
0100
0010
0000
0100
0001
0100
0010
,  // measure 76
0001
0100
0001
0100
1000
0000
0100
0010
,  // measure 77
0001
1000
0001
0100
1000
0000
0001
0100
,  // measure 78
0001
0100
0010
0001
1000
0001
0100
0010
,  // measure 79
1001
0110
0202
0303
,  // measure 80
0101
1100
0110
0101
,  // measure 81
1001
0000
1001
1001
0000
1001
0000
0000
,  // measure 82
0110
0101
0110
0110
,  // measure 83
1001
1001
0000
0101
0000
0000
0000
0000
,  // measure 84
0110
1100
0101
0110
,  // measure 85
1100
0000
0110
0110
0000
0110
0000
0000
,  // measure 86
0110
0110
0110
0110
,  // measure 87
1001
1001
0000
1001
0000
0000
0001
0100
,  // measure 88
1100
2200
0000
3300
,  // measure 89
0010
0001
0100
1000
0000
0000
0000
0000
,  // measure 90
0101
0202
0000
0303
,  // measure 91
0010
0001
0100
1000
0000
0000
0100
0010
,  // measure 92
1001
2002
0000
3003
,  // measure 93
0010
0100
0000
0010
0000
0000
0001
1000
,  // measure 94
0001
0100
1000
0000
0000
0100
0000
0010
,  // measure 95
0100
0000
0001
0010
0000
0000
0000
0010
,  // measure 96
0100
0001
1000
0000
0001
0000
0000
0100
,  // measure 97
0010
0001
1000
0001
0100
0010
0001
1000
,  // measure 98
0001
0100
1000
0000
0000
0010
0000
0001
,  // measure 99
0100
0000
0010
0001
0000
1000
0000
0010
,  // measure 100
0001
0100
1000
0000
0000
0010
0000
0100
,  // measure 101
0010
0001
0100
0001
0100
0010
0001
1000
,  // measure 102
0001
0100
1000
0000
0000
0010
0000
0100
,  // measure 103
0010
0000
0001
0100
0000
2000
0000
0000
,  // measure 104
3000
0000
0100
0010
0001
1000
0001
0100
,  // measure 105
1000
0000
0100
0010
0001
1000
0001
0100
,  // measure 106
1000
0000
0100
0010
0001
0100
0001
0100
,  // measure 107
1000
0000
0000
0010
0100
0000
0010
0000
0100
0000
0010
0000
0001
0000
0000
0000
,  // measure 108
0000
0000
0100
0010
0001
1000
0001
0100
,  // measure 109
1000
0000
0100
0010
0001
1000
0001
0100
,  // measure 110
0010
0000
0100
0010
0001
1000
0001
0100
,  // measure 111
0010
0000
0001
1000
0001
0100
1000
0000
,  // measure 112
0000
0000
0100
0010
0001
1000
0001
0100
,  // measure 113
1000
0000
0100
0010
0001
1000
0001
0100
,  // measure 114
1000
0000
0010
0100
0010
0001
1000
0001
,  // measure 115
0100
0000
0010
0100
0001
0100
1000
0000
,  // measure 116
0000
0000
0001
1000
0001
0010
0100
0000
,  // measure 117
0010
0000
0100
0010
0001
1000
0001
0100
,  // measure 118
1000
0100
0010
0001
1000
0001
0100
0010
,  // measure 119
0001
0100
0001
0100
0010
0001
0100
0001
,  // measure 120
0100
0010
0001
1000
0001
0100
0010
0001
,  // measure 121
0100
0001
0100
0010
0001
0100
0001
1000
,  // measure 122
0100
0010
0001
0100
0001
0100
0010
0001
,  // measure 123
1000
0001
0100
0010
0001
0100
0001
0100
,  // measure 124
0010
0001
0100
0001
0100
0010
0001
0100
,  // measure 125
0001
0100
0010
0001
1000
0001
0100
0010
,  // measure 126
0001
0100
0001
0100
0010
0001
1000
0001
,  // measure 127
0100
0010
0001
0100
0001
0100
1000
0000
,  // measure 128
0010
0000
0001
0100
0001
0000
0010
0001
0100
0000
0001
0100
0010
0000
0010
0100
,  // measure 129
0001
0000
0010
0001
0100
0000
0010
0100
0001
0000
0010
0001
0100
0000
0010
0100
,  // measure 130
1000
0000
0000
0000
;
