#VERSION:0.83;
#TITLE:give praise give thanks;
#SUBTITLE:;
#ARTIST:Young Franco, General Levy, & Tommy Villers;
#TITLETRANSLIT:;
#SUBTITLETRANSLIT:;
#ARTISTTRANSLIT:;
#GENRE:;
#ORIGIN:;
#CREDIT:;
#BANNER:;
#BACKGROUND:;
#PREVIEWVID:;
#JACKET:;
#CDIMAGE:;
#DISCIMAGE:;
#LYRICSPATH:;
#CDTITLE:;
#MUSIC:Young Franco, General Levy, Tommy Villiers - Give Thanks, Give Praise (Official Video).ogg;
#OFFSET:0.000000;
#SAMPLESTART:100.059883;
#SAMPLELENGTH:12.000000;
#SELECTABLE:YES;
#BPMS:0.000=87.000,
48.000=174.000,
176.000=87.000,
224.000=174.000,
400.000=87.000,
416.000=174.000;
#STOPS:0.000=0.200;
#DELAYS:;
#WARPS:;
#TIMESIGNATURES:0.000=4=4;
#TICKCOUNTS:0.000=4;
#COMBOS:0.000=1;
#SPEEDS:0.000=1.000=0.000=0;
#SCROLLS:0.000=1.000;
#FAKES:;
#LABELS:0.000=Song Start;
#BGCHANGES:0.000=Young Franco, General Levy, Tommy Villiers - Give Thanks, Give Praise (Official Video).mp4=1.000=0=0=1=====,
99999=-nosongbg-=1.000=0=0=0 // don't automatically add -songbackground-
;
#KEYSOUNDS:;
#ATTACKS:
;

//---------------dance-single - ----------------
#NOTEDATA:;
#CHARTNAME:;
#STEPSTYPE:dance-single;
#DESCRIPTION:;
#CHARTSTYLE:;
#DIFFICULTY:Hard;
#METER:15;
#RADARVALUES:0.678802,0.974483,0.062639,0.000000,0.548091,1062.000000,1048.000000,14.000000,0.000000,0.000000,0.000000,0.000000,0.000000,0.000000,0.678802,0.974483,0.062639,0.000000,0.548091,1062.000000,1048.000000,14.000000,0.000000,0.000000,0.000000,0.000000,0.000000,0.000000;
#CREDIT:;
#NOTES:
// measure 0
0000
0000
0000
0000
,  // measure 1
0000
0000
0000
0000
,  // measure 2
0000
0000
0000
0000
,  // measure 3
0000
0000
0000
0000
0000
0000
0000
0000
0000
0000
0010
0000
0100
0001
1000
0001
,  // measure 4
0010
0000
0100
0000
0001
1000
0100
0001
0010
0000
0100
0000
0010
0100
0001
0100
,  // measure 5
1000
0000
0001
0000
0000
0000
0100
0000
0010
0100
0001
0000
0100
0010
0001
0100
,  // measure 6
0100
0000
0010
0000
0001
0100
0001
1000
0100
0000
0100
0000
0010
0100
0001
0100
,  // measure 7
1000
0000
0100
0000
0000
0000
0001
0000
0010
0100
0010
0001
0100
0000
0000
0000
,  // measure 8
0100
0001
1000
0010
0100
0000
0001
0000
0010
0100
0001
0100
1000
0000
0100
0000
,  // measure 9
1000
0001
0100
0001
0010
0000
0010
0000
0001
0100
0001
1000
0100
0000
0000
0000
,  // measure 10
0001
0100
0001
0100
1000
0000
0100
0000
0010
0100
0001
0100
1000
0000
0000
0000
,  // measure 11
0010
0001
1000
0001
0100
0000
0010
0000
0001
1000
0010
0100
0001
0000
0100
0000
,  // measure 12
0100
0010
0001
0100
0001
1000
0100
0001
,  // measure 13
1000
0000
0001
0000
0100
0000
0010
0000
1000
0100
0001
0000
0100
0000
0100
0000
,  // measure 14
0010
0010
0001
0100
0001
0100
0001
0100
,  // measure 15
0001
0000
0100
0000
1000
0000
0010
0100
0000
0001
1000
0000
0100
0000
0010
0000
,  // measure 16
0100
0001
1000
0001
0010
0100
0010
0001
,  // measure 17
1000
0000
0001
0000
0100
0000
0010
0000
1000
0100
0001
0000
0010
0000
0100
0000
,  // measure 18
0001
0100
1000
0001
0100
0010
0001
1000
,  // measure 19
0001
0000
0100
0000
0010
0000
1000
0100
0000
0001
0010
0000
0100
0000
0010
0000
,  // measure 20
0001
0100
0010
0001
1000
0001
0100
0000
,  // measure 21
0010
0000
0001
0000
0100
0000
0010
0000
1000
0100
0001
0000
0010
0000
0001
0000
,  // measure 22
0100
0010
0001
0100
0001
0100
1000
0000
,  // measure 23
0001
0000
0100
0000
0010
0000
1000
0100
0000
0001
0010
0000
0100
0000
0010
0000
,  // measure 24
0100
0010
0001
0100
0001
1000
0100
0010
,  // measure 25
0001
0000
1000
0000
0001
0000
0100
0000
0010
0001
0100
0000
1000
0000
0010
0000
,  // measure 26
0100
0001
0100
0001
1000
0001
0100
0010
,  // measure 27
0100
0001
0100
0001
0100
0001
0100
0001
,  // measure 28
1000
0100
0000
0001
0010
0000
0100
0000
0001
1000
0000
0100
0001
0000
0100
0000
,  // measure 29
0010
0000
0100
0000
0001
1000
0000
0100
0001
0000
0100
0000
0110
0000
0000
0000
,  // measure 30
1000
0000
0100
0000
0001
0000
0010
0000
0100
0001
0000
0010
0100
0000
0000
0000
,  // measure 31
0010
0000
0100
0001
1000
0000
0100
0000
0001
0010
0000
0100
0001
0000
0000
0000
,  // measure 32
1000
0000
0100
0001
0010
0000
0100
0000
0001
0010
0100
1000
0100
0000
0100
0000
,  // measure 33
0010
0000
1000
0001
0100
0000
0010
0000
0001
0000
0100
0000
1000
0000
0100
0000
,  // measure 34
0000
0000
0001
0010
0100
0000
0001
0000
1000
0100
0001
0000
0010
0000
0100
0000
,  // measure 35
0001
0100
0010
0001
0100
0000
0010
0000
0100
0000
0001
0000
0100
0000
1000
0000
,  // measure 36
0110
0100
0001
0100
0001
0100
1000
0000
,  // measure 37
0010
0000
0100
0000
0001
0000
0100
0000
0001
0010
0100
0000
1000
0000
0000
0000
,  // measure 38
0100
0010
0001
0100
0001
0100
1000
0000
,  // measure 39
0001
0000
0100
0000
0010
0000
1000
0100
0010
0001
0010
0000
0100
0000
0001
0000
,  // measure 40
1001
0000
0010
0010
0001
0100
1000
0000
,  // measure 41
0001
0000
0100
0000
0001
0000
0100
0000
0010
0001
0100
0000
1000
0000
0000
0000
,  // measure 42
0001
0100
0001
0100
0001
0100
1000
0010
,  // measure 43
0001
0100
0001
0100
1000
0100
1000
0100
,  // measure 44
0010
0000
0100
0000
0010
0100
0001
0100
1000
0000
0100
0000
0010
0100
0001
0100
,  // measure 45
1000
0000
0010
0000
0000
0000
0100
0000
0001
0100
0010
0100
1000
0010
0001
0100
,  // measure 46
1001
0000
0010
0000
0010
0100
0001
0100
1000
0000
0100
0000
0010
0100
0001
0100
,  // measure 47
1000
0000
0000
0000
0000
0000
0100
0000
0010
0100
0001
0100
1001
0000
0000
0000
,  // measure 48
1000
0100
0001
0010
0100
0000
0010
0000
0100
0010
0100
0001
0100
0000
1000
0000
,  // measure 49
0100
0010
0001
0100
1000
0000
0100
0000
0010
0100
0001
0100
1000
0000
0000
0100
,  // measure 50
0011
1000
0001
0010
0100
0000
0100
0000
0010
0100
0001
0100
1000
0000
0100
0000
,  // measure 51
0010
0100
0001
0100
1000
0000
0100
0000
0010
0100
0001
0100
1000
0000
0100
0000
,  // measure 52
0001
0000
0000
0000
0000
0000
0100
0000
1000
0000
0000
0000
0000
0000
0001
0100
,  // measure 53
0010
0000
0000
0000
0010
0000
0000
0000
0001
0000
0000
0000
0100
0000
0000
0001
0000
0000
1000
0000
0000
0000
0000
0000
0100
0000
0000
0001
0000
0000
1000
0000
0000
0100
0000
0000
0001
0000
0000
0000
0000
0000
1000
0000
0000
0000
0000
0000
,  // measure 54
0100
0000
0000
0000
0000
0010
0100
0000
0001
0000
0000
0000
0000
0000
0001
0100
,  // measure 55
1000
0001
0000
0100
0001
1000
0100
0000
0100
0010
0001
0100
1000
0000
0000
0100
,  // measure 56
0001
0010
0010
0100
0001
1000
0100
0000
,  // measure 57
0010
0000
0000
0000
0000
0000
0100
0001
,  // measure 58
0100
0000
0000
0001
0000
0000
0010
0000
0100
0000
0001
0000
1000
0000
0000
0000
,  // measure 59
1000
0001
0100
0010
0001
1000
0100
0000
,  // measure 60
1000
0000
0000
0001
,  // measure 61
0100
0000
0000
0000
0000
0000
0010
0001
,  // measure 62
1000
0001
0100
0010
1000
0100
0000
0001
,  // measure 63
0010
0000
0000
0000
,  // measure 64
0000
0000
0000
0000
,  // measure 65
0000
0000
0000
0000
,  // measure 66
0000
0000
0000
0000
,  // measure 67
0000
0000
0000
0000
,  // measure 68
1000
0000
0100
0001
0010
0000
0010
0100
0010
0001
0100
0010
0001
1000
0001
0100
,  // measure 69
1000
0000
0010
0001
0100
0010
0001
0100
0001
0100
0001
0100
1000
0100
0010
0001
,  // measure 70
0100
0000
0000
0000
0001
0100
0010
0001
1000
0000
0001
0010
0100
0000
1000
0000
,  // measure 71
0010
0000
0001
0000
0100
0000
0001
0000
0100
0000
0010
0001
1000
0000
0000
0000
,  // measure 72
0010
0100
0010
0100
0001
0100
0010
0100
1000
0010
0100
0010
0100
0001
0100
0010
,  // measure 73
0100
1000
0100
0001
0100
0010
0001
0100
0001
0100
0010
0100
0001
1000
0001
0100
,  // measure 74
0010
0001
0100
0001
0100
0010
0100
0001
0100
0001
1000
0001
0100
0010
0001
0100
,  // measure 75
0001
0100
0010
0100
0001
0000
1000
0000
0100
0000
0000
0000
0000
0000
0000
0000
,  // measure 76
0010
0100
0001
0100
0010
0001
0100
0001
0100
0010
0001
1000
0001
0100
0010
0001
,  // measure 77
0100
0001
0100
0010
0001
1000
0001
0100
0010
0001
0100
0001
0100
0010
0001
1000
,  // measure 78
0001
0100
0010
0001
0100
0001
0100
0010
0001
1000
0001
0100
0010
0001
0100
0001
,  // measure 79
0100
0010
0001
1000
0001
0100
0010
0001
0100
0001
0100
0001
0100
0010
0001
1000
,  // measure 80
0001
0100
0010
0001
1000
0001
0100
0010
0001
0100
0001
0100
0010
0001
1000
0001
,  // measure 81
0100
0010
0001
0100
0001
0010
0100
0010
0100
0001
0100
1000
0100
0000
0000
0000
,  // measure 82
0100
0000
1000
0001
0100
0000
0001
0100
0010
0001
1000
0001
0100
0000
0000
0000
,  // measure 83
0001
0000
0100
0010
0001
0100
0001
1000
0100
0000
0010
0000
0001
0000
0100
0000
,  // measure 84
1001
0000
0001
0000
0001
0100
0001
0100
,  // measure 85
1000
0000
0001
0000
0100
0010
0001
0100
,  // measure 86
1000
0100
0000
0100
,  // measure 87
0001
0010
0100
0001
0010
0100
0001
1000
,  // measure 88
0110
0000
0010
0000
0001
0100
0001
0100
,  // measure 89
1000
0000
0000
0000
0010
0000
0000
0000
0001
0010
0100
0000
0001
0000
0100
0000
,  // measure 90
1000
0100
0000
0010
,  // measure 91
0001
0000
0100
0000
0010
0000
1000
0100
0000
0001
0010
0000
0100
0000
0001
0000
,  // measure 92
0010
0100
0001
1000
0100
0000
0010
0000
,  // measure 93
0001
0000
0100
0000
0001
0000
0100
0000
1000
0100
0001
0000
0010
0000
0000
0000
,  // measure 94
0001
0100
0001
0100
1000
0000
0010
0000
,  // measure 95
0001
0000
0100
0000
0010
0000
0100
1000
0000
0001
0100
0000
0010
0000
0100
0000
,  // measure 96
0110
0010
0001
0100
1000
0000
0010
0000
,  // measure 97
0001
0000
0100
0000
0001
0000
0100
0000
1000
0100
0001
0000
0010
0000
0000
0000
,  // measure 98
0001
0010
0100
0001
0100
0000
0001
0000
,  // measure 99
0100
0000
1000
0000
0001
0000
0100
0010
0000
0100
0001
0000
1000
0000
0000
0000
,  // measure 100
0100
0000
0000
0000
0000
0000
0001
0000
0010
0000
0000
0000
0000
1000
0100
0001
,  // measure 101
0010
0100
0000
0001
0010
1000
0100
0000
0010
0100
0001
1000
0001
0000
0010
0000
,  // measure 102
0100
0000
0000
0000
0000
1000
0100
0000
0010
0000
0000
0000
0000
0010
0100
0001
,  // measure 103
1000
0100
0000
0010
0001
0100
1000
0000
0001
0100
0001
0100
1000
0000
0000
0010
,  // measure 104
0100
0010
0100
0001
1000
0001
0010
0000
,  // measure 105
1100
0000
0000
0000
0000
0000
0100
0001
,  // measure 106
0100
0000
0000
0001
0000
0000
1000
0000
0100
0000
0001
0000
0010
0000
0000
0000
,  // measure 107
0100
0001
1000
0001
0010
0100
0001
0000
,  // measure 108
1000
0000
0000
0010
,  // measure 109
0100
0000
0000
0000
0000
0000
0001
0100
,  // measure 110
1000
0001
0100
0010
1000
0100
0000
0001
,  // measure 111
0010
0000
0000
0000
,  // measure 112
0000
0000
0000
0000
,  // measure 113
0000
0000
0000
0000
,  // measure 114
0000
0000
0000
0000
,  // measure 115
0000
0000
0000
0000
0000
0000
0000
0000
0000
0000
1000
0100
0001
0000
0010
0000
,  // measure 116
0110
0001
0001
0100
0001
1000
0100
0000
,  // measure 117
0010
0000
0001
0000
0100
0000
0010
0000
1000
0100
0001
0000
0010
0000
0000
0000
,  // measure 118
0001
0100
0001
1000
0001
0010
0100
0000
,  // measure 119
0001
0000
0100
0000
0001
0000
0010
0100
0000
0001
1000
0000
0100
0000
0001
0000
,  // measure 120
0010
0100
0010
0100
0001
0100
1000
0000
,  // measure 121
0100
0000
0001
0000
0100
0000
0010
0000
1000
0100
0001
0000
0010
0000
0000
0000
,  // measure 122
0100
0010
0001
0100
0001
0100
1000
0000
,  // measure 123
0100
0000
0010
0000
1000
0000
0100
0001
0000
0010
0100
0000
0001
0000
1000
0000
,  // measure 124
0110
0001
1000
0001
0010
0100
0001
0000
,  // measure 125
0001
0000
0010
0000
0100
0000
0010
0000
1000
0100
0001
0000
0010
0000
0000
0000
,  // measure 126
0100
0100
0001
0100
0001
0100
1000
0000
,  // measure 127
0001
0000
0100
0000
0010
0000
1000
0100
0000
0001
0010
0000
0100
0000
0010
0000
,  // measure 128
0101
0010
0001
0100
0001
0100
1000
0000
,  // measure 129
0010
0000
0001
0000
0100
0000
0010
0000
1000
0100
0001
0000
0010
0000
0100
0000
,  // measure 130
0001
0100
0010
0100
0001
0100
1000
0000
,  // measure 131
0100
0000
0010
0000
1000
0000
0001
0100
0000
0010
0001
0000
0100
0000
0010
0000
,  // measure 132
1001
0000
0000
0000
;
