#VERSION:0.83;
#TITLE:give me something;
#SUBTITLE:;
#ARTIST:OneRepublic;
#TITLETRANSLIT:;
#SUBTITLETRANSLIT:;
#ARTISTTRANSLIT:;
#GENRE:;
#ORIGIN:;
#CREDIT:;
#BANNER:;
#BACKGROUND:;
#PREVIEWVID:;
#JACKET:;
#CDIMAGE:;
#DISCIMAGE:;
#LYRICSPATH:;
#CDTITLE:;
#MUSIC:OneRepublic - Give Me Something (for Arknights Endfield) [Official Music Video].ogg;
#OFFSET:0.000000;
#SAMPLESTART:100.059883;
#SAMPLELENGTH:12.000000;
#SELECTABLE:YES;
#BPMS:0.000=115.000;
#STOPS:;
#DELAYS:;
#WARPS:;
#TIMESIGNATURES:0.000=4=4;
#TICKCOUNTS:0.000=4;
#COMBOS:0.000=1;
#SPEEDS:0.000=1.000=0.000=0;
#SCROLLS:0.000=1.000;
#FAKES:;
#LABELS:0.000=Song Start;
#BGCHANGES:0.000=OneRepublic - Give Me Something (for Arknights Endfield) [Official Music Video].mp4=1.000=0=0=1=====,
99999=-nosongbg-=1.000=0=0=0 // don't automatically add -songbackground-
;
#KEYSOUNDS:;
#ATTACKS:
;

//---------------dance-single - ----------------
#NOTEDATA:;
#CHARTNAME:;
#STEPSTYPE:dance-single;
#DESCRIPTION:;
#CHARTSTYLE:;
#DIFFICULTY:Hard;
#METER:12;
#RADARVALUES:0.454998,0.508666,0.000000,0.018482,0.449718,517.000000,517.000000,0.000000,3.000000,0.000000,0.000000,0.000000,0.000000,0.000000,0.454998,0.508666,0.000000,0.018482,0.449718,517.000000,517.000000,0.000000,3.000000,0.000000,0.000000,0.000000,0.000000,0.000000;
#CREDIT:;
#NOTES:
// measure 0
0000
0000
0000
0000
,  // measure 1
0000
0000
0000
0000
,  // measure 2
0000
0000
0000
0000
0001
0000
0100
0000
0010
0000
0100
0001
0000
0010
0000
0000
,  // measure 3
0000
0000
0000
0000
0100
0000
0010
0000
0100
0000
0010
0100
0000
0001
0000
0000
,  // measure 4
0000
0000
1000
0100
0000
0000
0001
0010
,  // measure 5
0000
0000
0000
0000
0100
0000
0010
0000
0001
0000
0000
0000
0100
0000
0010
0100
,  // measure 6
0000
0000
0000
0000
0000
0000
0000
0000
0000
0000
0000
0000
0001
0000
0100
1000
,  // measure 7
0000
0000
0000
0000
0000
0000
0000
0000
0000
0000
0000
0000
0010
0000
0001
1000
,  // measure 8
0000
0100
0000
0000
0000
0000
0000
0000
0000
0000
0000
0000
0001
0000
0100
1000
,  // measure 9
0000
0100
0000
0000
0000
0000
0000
0000
0000
0000
0000
0000
0001
0000
0100
0010
,  // measure 10
0001
0000
0000
0000
0001
0000
0000
0000
0100
0000
0000
0000
1000
0000
0100
0001
,  // measure 11
0010
0000
0000
0000
0100
0000
0000
0000
0100
0000
0000
0000
0001
0000
0100
0010
,  // measure 12
0001
0100
0000
0000
0001
0000
0000
0000
0100
0000
0000
0000
1000
0000
0010
0100
,  // measure 13
0001
0010
0000
0000
0100
0000
0000
0000
0010
0000
0000
0010
0100
0010
0100
0001
,  // measure 14
0100
0010
0000
0000
0100
0001
0000
0000
1000
0100
0000
0000
0000
0000
0010
0000
,  // measure 15
0100
0000
0000
0010
0001
0000
0000
0100
1000
0000
0000
0000
0100
0000
0001
1000
,  // measure 16
0000
0100
0001
1000
0010
0000
0100
0000
0001
0000
1000
0100
0001
0000
1000
0100
,  // measure 17
0000
0001
0010
0000
0001
0000
0100
0000
1000
0000
0000
0000
0100
0001
1000
0001
,  // measure 18
0010
0100
0000
0000
0001
1000
0000
0000
0100
0001
0000
0000
0000
0000
1000
0000
,  // measure 19
0100
0000
0000
0010
0100
0000
0000
0001
0010
0000
0000
0000
0100
0000
0010
0001
,  // measure 20
0010
0100
0010
0000
0001
0000
0100
0000
1000
0000
0100
0001
0100
0000
0010
0100
,  // measure 21
0000
0001
1000
0000
0100
0000
0010
0000
0001
0000
1000
0000
0001
0000
0100
0000
,  // measure 22
2000
0000
0000
0000
3000
0010
0001
0200
,  // measure 23
0000
0300
0001
0100
0010
0000
0010
0000
,  // measure 24
0002
0000
0000
0000
,  // measure 25
0000
0000
0000
0000
0003
0000
0000
0000
0001
0000
1000
0000
0001
0000
0100
0010
,  // measure 26
1000
0000
0100
0000
1000
0010
0001
0100
,  // measure 27
0010
0000
0001
0100
1000
0000
0001
0000
,  // measure 28
0100
0010
0001
1000
,  // measure 29
0001
0000
0000
0000
0100
0000
0000
0000
0010
0000
0000
0000
1000
0000
0001
0100
,  // measure 30
0010
0100
0010
0000
0100
0000
0001
0000
1000
0000
0100
0000
0001
1000
0100
0001
,  // measure 31
0010
0100
0001
0000
0001
0000
0100
0000
1000
0000
0000
0000
0100
0001
1000
0100
,  // measure 32
0001
0010
0100
0000
0001
0000
0100
0000
1000
0000
0000
0010
0100
0001
1000
0001
,  // measure 33
0010
0100
0001
0000
0001
0000
0000
0000
0100
0000
0000
0000
1000
0000
0100
0001
,  // measure 34
0010
1000
0100
0000
0001
0000
0010
0000
0100
0000
0000
0000
0001
0100
0001
1000
,  // measure 35
0001
0010
0100
0000
0001
0000
0100
0000
1000
0000
0000
0000
0001
0100
0001
1000
,  // measure 36
0100
0000
0001
0000
0001
0000
0010
0000
0100
0000
0000
0000
1000
0000
0100
0001
,  // measure 37
0000
0000
0000
0000
0001
0000
0000
0000
0100
0000
0000
0000
0010
0000
0100
0001
,  // measure 38
0000
1000
0000
0000
0000
0000
0000
0000
0000
0000
0000
0000
1000
0000
0100
0001
,  // measure 39
0010
0000
0000
0000
0010
0000
1000
0100
0010
0000
0000
0000
0010
0000
0100
0001
,  // measure 40
0010
0000
0000
0000
0010
0000
0100
1000
0010
0000
0000
0000
0100
0000
0001
1000
,  // measure 41
0010
0100
0000
0000
0010
0000
0100
0001
1000
0000
0000
0000
0100
0000
0001
0100
,  // measure 42
0001
0010
0000
0000
0100
0000
0001
0100
1000
0000
0000
0000
0100
0001
1000
0001
,  // measure 43
0010
0100
0001
0000
0001
0000
0100
0000
1000
0000
0000
0000
0100
0000
0000
0001
,  // measure 44
0000
0010
0100
0000
0001
0000
0100
0000
1000
0000
0000
0000
1000
0000
0100
0001
,  // measure 45
0000
0010
0010
0000
0001
0000
1000
0000
0100
0000
0000
0000
0100
0000
0001
1000
,  // measure 46
0000
0100
0001
0000
0010
0000
0100
0000
0001
0000
0000
0000
0000
0000
0100
0001
,  // measure 47
0010
1000
0010
0000
0001
0000
0100
0000
1000
0000
0000
0000
0100
0000
0000
0001
,  // measure 48
1000
0010
0100
0000
0001
0000
0100
0000
0010
0000
0000
0000
0001
0000
0100
1000
,  // measure 49
0010
0001
0010
0000
0100
0000
0000
0000
1000
0000
0000
0000
0100
0000
0001
1000
,  // measure 50
0100
0001
0010
0000
0001
0000
0100
0000
1000
0000
0000
0000
0010
0000
0001
0100
,  // measure 51
1000
0001
0010
0000
0100
0000
0000
0000
0001
0000
1000
0000
0100
0001
0100
0001
,  // measure 52
0010
0100
0001
0000
0100
0000
0010
0000
1000
0000
0000
0000
0001
0100
0001
0100
,  // measure 53
1000
0010
0100
0000
0001
0000
1000
0000
0100
0000
0000
0010
0100
0001
1000
0001
,  // measure 54
0010
0100
0001
0000
0010
0000
0000
0000
0100
0000
0000
0000
0001
0000
1000
0100
,  // measure 55
0001
0010
0100
0000
0001
0000
0100
0000
1000
0000
0000
0000
0001
1000
0001
0100
,  // measure 56
1000
0001
0100
0000
0001
0000
0100
0000
1000
0000
0000
0000
0100
0001
1000
0100
,  // measure 57
0001
0010
0100
0000
0001
0000
1000
0000
0100
0000
0000
0000
0100
0000
1000
0100
,  // measure 58
0001
0000
0000
0000
0100
0000
0000
0000
0010
0000
0000
0000
0001
0000
0100
1000
,  // measure 59
0001
0010
0000
0000
1000
0000
0100
0000
0001
0000
0100
0001
0000
1000
0000
0100
,  // measure 60
0010
0000
0000
0000
0100
0000
0001
0000
1000
0000
0001
0010
0000
0100
0000
0001
,  // measure 61
1000
0000
0010
0001
0100
0000
0001
0100
,  // measure 62
1000
0000
0001
0100
1000
0000
1000
0000
,  // measure 63
0001
0000
0000
0000
0100
0000
0010
0000
0001
0000
0100
1000
0000
0010
0000
0100
,  // measure 64
0001
0000
0000
0000
0001
0000
0100
0000
0010
0000
0001
0100
0000
0010
0000
0100
,  // measure 65
1000
0001
0100
0000
0001
0000
1000
0000
0010
0000
0000
0000
0001
0000
0100
0000
,  // measure 66
0010
0000
0000
0000
0001
0000
0100
0000
0010
0000
0000
0000
0100
0000
0001
1000
,  // measure 67
0000
0100
0000
0000
0000
0000
0000
0000
0000
0000
0000
0000
1000
0100
0001
0100
,  // measure 68
0000
0000
0000
0000
0000
0000
0000
0000
0000
0000
0000
0000
0100
0001
0100
1000
,  // measure 69
0000
0000
0000
0000
0010
0000
0000
0000
0000
0000
0000
0001
1000
0001
0100
1000
,  // measure 70
0000
0000
0000
0000
0010
0000
0000
0000
0100
0000
0000
0000
0100
0000
0001
1000
,  // measure 71
0000
0100
0000
0000
0000
0000
0000
0000
0000
0000
0000
0000
0100
0001
0100
1000
,  // measure 72
0000
0000
0000
0000
0000
0000
0000
0000
0000
0000
0000
0000
1000
0100
0001
0010
,  // measure 73
0000
0000
0000
0000
0100
0000
0000
0000
0000
0000
0000
0000
0001
0000
1000
0100
,  // measure 74
0000
0000
0000
0000
0001
0000
0000
0000
0100
0000
0000
0000
0010
0000
0100
0001
,  // measure 75
0000
1000
0000
0000
0000
0000
0000
0000
0000
0000
0000
0000
0000
0000
0000
0000
;
