#TITLE:girls;
#SUBTITLE:;
#ARTIST:The Kid Laroi;
#TITLETRANSLIT:;
#SUBTITLETRANSLIT:;
#ARTISTTRANSLIT:;
#GENRE:;
#CREDIT:;
#BANNER:;
#BACKGROUND:;
#LYRICSPATH:;
#CDTITLE:;
#MUSIC:The Kid LAROI - GIRLS (Official Video).ogg;
#OFFSET:0.000000;
#SAMPLESTART:100.059883;
#SAMPLELENGTH:12.000000;
#SELECTABLE:YES;
#BPMS:0.000000=101.000000
;
#STOPS:0.000000=0.350000
;
#BGCHANGES:0.000=The Kid LAROI - GIRLS (Official Video).mp4=1.000=0=0=1=====,
99999=-nosongbg-=1.000=0=0=0 // don't automatically add -songbackground-
;
#KEYSOUNDS:;
#ATTACKS:;

//---------------dance-single - ----------------
#NOTES:
     dance-single:
     :
     Hard:
     12:
     0.459372,0.541046,0.188770,0.000000,0.514236,494.000000,465.000000,29.000000,0.000000,0.000000,0.000000,0.459372,0.541046,0.188770,0.000000,0.514236,494.000000,465.000000,29.000000,0.000000,0.000000,0.000000:
// measure 0
0000
0000
0000
0000
,  // measure 1
0000
0000
0000
0000
,  // measure 2
0000
0000
0000
0000
,  // measure 3
0000
0000
0000
0000
,  // measure 4
1001
0000
0000
0000
0010
0000
0001
0000
0100
0010
0100
0000
0000
0000
0000
0000
,  // measure 5
1001
0000
0000
0000
0100
0000
0010
0000
0100
0001
0010
0000
0000
0000
0000
0000
,  // measure 6
1001
0000
0000
0000
0001
0000
0100
0000
0010
0001
0100
0000
0000
0000
0000
0000
,  // measure 7
1001
0000
0000
0000
0001
0000
0100
0000
0100
0010
0100
0000
0000
0000
0001
0000
,  // measure 8
0010
0000
0000
0000
0000
0000
0000
0000
0000
0000
0000
0000
0100
0000
0000
0000
0000
0000
0010
0000
0000
0000
0000
0000
0100
0000
0000
0000
0001
0000
0000
0000
1000
0000
0000
0000
0001
0000
0000
0000
0000
0000
0010
0000
0000
0100
0000
0000
,  // measure 9
0001
1000
0001
0000
0010
0000
0100
0001
1000
0001
0010
0000
0000
0000
0000
0000
,  // measure 10
0110
0000
0000
0000
0100
0000
0010
0000
0001
0100
1000
0000
0000
0000
0000
0000
,  // measure 11
0000
0000
0000
0000
0000
0000
0000
0000
0000
0000
0000
0000
0001
0000
0000
0000
0000
0000
0100
0000
0000
0000
0000
0000
0010
0000
0000
0100
0000
0000
0001
0000
0000
0000
0000
0000
0000
0000
0000
0000
0100
0000
0000
0000
0001
0000
0000
0000
,  // measure 12
0010
0000
0000
0100
0000
0000
0000
0000
0010
0000
0100
0000
0001
0000
0000
0100
0000
0000
0000
0000
0010
0000
0100
0000
,  // measure 13
0001
0000
0000
0010
0000
0000
0000
0000
0010
0000
0001
0000
1000
0000
0000
0100
0000
0000
0000
0000
0010
0000
0100
0000
,  // measure 14
0001
0000
0000
0010
0000
0000
0000
0000
0100
0000
0010
0000
0001
0000
0000
0100
0000
0000
0000
0000
0010
0000
0100
0000
,  // measure 15
0001
0000
0000
0000
0000
0000
1000
0000
0000
0000
0000
0000
0000
0000
0000
0000
0100
0000
0000
0000
0010
0000
0000
0000
0001
0000
0000
0000
0000
0000
0100
0000
0000
0000
0000
0000
0000
0000
0000
0010
0000
0000
0100
0000
0000
0001
0000
0000
,  // measure 16
0000
0010
0000
0100
0000
0001
0000
0010
0000
0100
0001
0010
0100
0000
0000
0000
,  // measure 17
0000
0010
0000
0001
0000
0100
0000
0010
0000
0001
0100
0010
0001
0000
0100
0000
,  // measure 18
0000
0001
0000
0100
0000
0010
0000
0100
0001
0100
0001
1000
0001
0000
0010
0000
,  // measure 19
0010
0001
0100
0000
0010
0001
0100
0010
,  // measure 20
1001
0000
0000
0000
0100
0000
0010
0000
0001
0010
0100
0000
0000
0000
1001
0000
,  // measure 21
1001
0000
0000
0000
0001
0000
0100
0000
0010
0001
0100
0000
0000
0000
0000
0000
,  // measure 22
1001
0000
0000
0000
0100
0000
0010
0000
0001
1000
0100
0000
0000
0000
1001
0000
,  // measure 23
1001
0000
0000
0000
0100
0000
0010
0000
0100
0010
0100
0000
0000
0000
0001
0000
,  // measure 24
0110
0000
0000
0000
0000
0000
0000
0000
0000
0000
0000
0000
0100
0000
0000
0000
0000
0000
0010
0000
0000
0000
0000
0000
0001
0000
0000
0000
1000
0000
0000
0000
0001
0000
0000
0000
0100
0000
0000
0000
0000
0000
0010
0000
0000
0100
0000
0000
,  // measure 25
0001
1000
0001
0010
0100
0000
0001
0100
0001
1000
0100
0000
0000
0000
0000
0000
,  // measure 26
0110
0000
0000
0000
0100
0000
0010
0000
0001
0100
1000
0000
0000
0000
0000
0000
,  // measure 27
0000
0000
0000
0000
0100
0000
0010
0000
0001
1000
0100
0000
0000
0000
0000
0001
,  // measure 28
0100
0010
0001
0100
0001
0100
1000
0000
0001
0000
0000
0010
0100
0000
0000
0000
,  // measure 29
0100
0000
0001
0000
0010
0100
0001
0000
0010
0000
0000
0001
0100
0000
0000
0000
,  // measure 30
0010
0100
0001
1000
0001
0000
0010
0100
0001
0000
0100
0010
0000
0000
0000
0010
,  // measure 31
0001
1000
0001
0100
0010
0000
0001
0000
0100
0000
0000
0010
0000
0000
0100
0000
,  // measure 32
0000
0010
0000
0001
0000
0100
0000
0010
0000
0001
0100
0001
0100
0000
0010
0000
,  // measure 33
0000
0100
0000
0010
0000
0001
0000
0100
0000
0010
0001
1000
0100
0000
0000
0000
,  // measure 34
0000
0001
0000
0100
0000
0010
0000
0100
0010
0001
0100
0001
1000
0000
0100
0000
,  // measure 35
0001
0100
0010
0000
0100
0001
0100
0010
,  // measure 36
1001
0000
0000
0000
0001
0000
0100
0000
0001
0010
0100
0000
0000
0000
1001
0000
,  // measure 37
1001
0000
0000
0000
0001
0000
0100
0000
0010
0001
0100
0000
0000
0000
0000
0000
,  // measure 38
1001
0000
0000
0000
0100
0000
0010
0000
0001
1000
0100
0000
0000
0000
0101
0000
,  // measure 39
0101
0000
0000
0000
0010
0000
0100
0000
0001
1000
0100
0000
0000
0000
0000
0000
,  // measure 40
0010
0000
0000
0000
0000
0000
0000
0000
0000
0000
0000
0000
0100
0000
0000
0000
0000
0000
0010
0000
0000
0100
0000
0000
0001
0000
0000
0000
0100
0000
0000
0000
0001
0000
0000
0000
0010
0000
0000
0000
0000
0000
0100
0000
0000
0001
0000
0000
,  // measure 41
0010
0100
0001
0010
0100
0000
0001
1000
0100
0001
0010
0000
0000
0000
0000
0000
,  // measure 42
1001
0000
0000
0000
0010
0000
0100
0000
0001
1000
0100
0000
0000
0000
0000
0000
,  // measure 43
0000
0000
0000
0000
0100
0000
0010
0000
0100
0001
0100
0000
0000
0000
0000
0000
,  // measure 44
0101
1000
0100
0000
,  // measure 45
0010
0001
0100
0010
0000
0001
1000
0100
,  // measure 46
0000
0010
0100
0000
,  // measure 47
0010
0001
0100
0010
0000
1000
0100
0001
,  // measure 48
0010
0001
0100
0001
0100
0001
1000
0000
0000
0100
0000
0000
,  // measure 49
0010
0000
0000
0100
,  // measure 50
0001
0100
0000
0010
0100
0000
0010
0100
0001
1000
0001
0010
0100
0000
0001
0000
,  // measure 51
0010
0100
0000
0001
1000
0000
0010
0100
0010
0001
1000
0001
0100
0000
0010
0000
,  // measure 52
0101
0000
0000
0000
0100
0000
0010
0000
0001
1000
0100
0000
0000
0000
0101
0000
,  // measure 53
0101
0000
0000
0000
0100
0000
0010
0000
0001
1000
0100
0000
0000
0000
0000
0000
,  // measure 54
0110
0000
0000
0000
0100
0000
0010
0000
0001
1000
0100
0000
0000
0000
0110
0000
,  // measure 55
0110
0000
0000
0000
0100
0000
0010
0000
0001
1000
0100
0000
0000
0000
0010
0000
,  // measure 56
0110
0000
0000
0000
0000
0000
0000
0000
0000
0000
0000
0000
0100
0000
0000
0000
0000
0000
0001
0000
0000
0010
0000
0000
0100
0000
0000
0000
0001
0000
0000
0000
0100
0000
0000
0000
0001
0000
0000
0000
0000
0000
0010
0000
0000
0100
0000
0000
,  // measure 57
0001
1000
0001
0100
0010
0000
0100
0001
1000
0001
0010
0000
0000
0000
0000
0000
,  // measure 58
0110
0000
0000
0000
0100
0000
0010
0000
0001
1000
0100
0000
0000
0000
0000
0000
,  // measure 59
0000
0000
0000
0000
0010
0000
0100
0000
0001
1000
0100
0000
0000
0000
0000
0000
,  // measure 60
0010
0100
0001
1000
0001
0010
0100
0000
0000
0010
0000
0000
,  // measure 61
0000
0000
0000
0000
0100
0001
1000
0100
0001
0100
0001
1000
0001
0010
0100
0001
,  // measure 62
0010
0100
0001
1000
0001
0010
0100
0000
0000
0010
0000
0000
,  // measure 63
0100
0010
0001
0100
0001
0100
0010
0001
0100
0001
0100
0010
0100
0001
0100
1000
;
