#TITLE:girl of your dreams;
#SUBTITLE:;
#ARTIST:Emerson Azarian;
#TITLETRANSLIT:;
#SUBTITLETRANSLIT:;
#ARTISTTRANSLIT:;
#GENRE:;
#CREDIT:;
#BANNER:;
#BACKGROUND:;
#LYRICSPATH:;
#CDTITLE:;
#MUSIC:Emerson Azarian - Girl of Your Dreams (Official Audio).ogg;
#OFFSET:0.000000;
#SAMPLESTART:100.059883;
#SAMPLELENGTH:12.000000;
#SELECTABLE:YES;
#BPMS:0.000000=120.000000
,40.000000=119.000000
,72.000000=120.000000
,256.000000=280.000000
,257.000000=124.000000
;
#STOPS:0.000000=0.700000,
8.000000=1.000000
;
#BGCHANGES:;
#KEYSOUNDS:;
#ATTACKS:;

//---------------dance-single - ----------------
#NOTES:
     dance-single:
     :
     Hard:
     12:
     0.450435,0.597419,0.013276,0.172588,0.258882,475.000000,473.000000,2.000000,26.000000,0.000000,0.000000,0.450435,0.597419,0.013276,0.172588,0.258882,475.000000,473.000000,2.000000,26.000000,0.000000,0.000000:
// measure 0
0000
0000
0000
0000
,  // measure 1
0000
0000
0000
0000
,  // measure 2
0000
0000
0000
0100
0001
1000
0001
0010
,  // measure 3
0100
0000
0000
0010
0001
0100
0001
1000
,  // measure 4
0100
0000
0010
0000
0001
0100
0001
0100
,  // measure 5
1000
0100
0020
0030
,  // measure 6
2000
0000
3000
0100
0001
0100
0001
0020
,  // measure 7
0000
0000
0030
0100
0001
1000
0001
0010
,  // measure 8
0100
0000
0000
0010
0001
1000
0001
0100
,  // measure 9
2000
0100
0100
3100
0002
0010
0010
0013
,  // measure 10
0100
0000
1000
0100
0001
0000
0000
0000
0001
0100
0001
1000
0100
0000
0010
0100
,  // measure 11
0001
0000
0100
0001
1000
0000
0000
0001
0100
0010
1000
0001
0100
0000
0010
0100
,  // measure 12
0001
0000
1000
0100
0001
0000
0010
0000
0100
0000
0001
1000
0100
0000
0001
1000
,  // measure 13
0100
0000
0010
0100
0001
0000
0001
1000
0100
0000
0100
0010
0001
0000
0100
0000
,  // measure 14
0010
0000
0001
1000
0100
0000
0000
0000
0001
1000
0001
0100
1000
0100
0001
0010
,  // measure 15
0100
0000
0001
0010
0100
0000
0000
0000
0001
1000
0001
0100
0010
0000
0001
0100
,  // measure 16
1000
0000
0100
0001
0010
0000
0000
0000
0100
0010
0001
0100
1000
0000
0000
0000
,  // measure 17
0100
0010
0001
0100
0001
0100
1000
0000
,  // measure 18
0000
0000
0000
0000
0001
0100
0001
0100
,  // measure 19
0000
0000
0100
0001
1000
0010
0100
0000
0001
0000
0010
0000
0100
0000
1000
0000
,  // measure 20
0000
0100
0010
0001
1000
0001
0100
1000
,  // measure 21
0100
0001
0001
0001
0010
0100
0100
0100
,  // measure 22
0010
0000
0000
0000
1000
0100
0001
0100
,  // measure 23
0000
0000
0100
0010
0000
1000
0001
0000
0100
0000
0001
0000
1000
0000
0100
0000
,  // measure 24
0000
0010
0010
0001
1000
0001
0100
0010
,  // measure 25
0001
0100
0100
0100
1000
0100
0100
0100
,  // measure 26
0020
0000
0000
0030
,  // measure 27
0200
0000
0300
0000
0010
0001
0100
1000
,  // measure 28
0010
0000
0100
0001
0000
0000
0000
0000
,  // measure 29
1000
1000
1000
1000
0100
0100
0100
0100
,  // measure 30
0020
0000
0000
0030
,  // measure 31
2000
0000
0000
3000
,  // measure 32
0200
0000
0300
0001
1000
0100
0001
0010
,  // measure 33
0000
0000
0000
0010
0001
0100
0001
1000
,  // measure 34
0100
0000
0000
0010
0001
1000
0001
0100
,  // measure 35
2000
0100
0100
3100
0002
0010
0010
0013
,  // measure 36
1001
0000
0000
0001
0100
0001
0100
1000
,  // measure 37
0000
0000
0000
0001
0100
0001
0100
1000
,  // measure 38
0010
0000
0100
0001
0010
0010
0001
0100
,  // measure 39
2000
0100
0100
3100
0002
0100
0100
0103
,  // measure 40
0010
0000
1000
0100
0001
0000
0000
0000
0001
0100
0001
1000
0100
0000
0100
0010
,  // measure 41
0001
0000
0010
0001
0100
0000
0000
0000
0001
0100
1000
0000
0100
0000
0010
0001
,  // measure 42
0000
0000
0010
0100
0001
0000
1000
0000
0100
0000
0001
0000
0001
0000
0100
0010
,  // measure 43
1000
0000
0001
0100
0001
0000
0010
0100
0001
0000
1000
0100
0001
0000
0010
0000
,  // measure 44
0001
0000
0100
0001
1000
0000
0000
0000
0100
0001
1000
0001
0010
0000
0100
0001
,  // measure 45
0010
0000
0001
1000
0100
0000
0000
0000
0001
0100
0001
0100
1000
0000
0100
0001
,  // measure 46
0000
0000
1000
0100
0001
0000
0000
0000
0001
0000
1000
0000
0100
0000
0000
0000
,  // measure 47
0100
0010
0001
1000
0001
0100
1000
0000
,  // measure 48
0000
0000
0000
0000
0010
0001
1000
0100
,  // measure 49
0000
0000
0001
0100
0000
0100
0010
0000
0010
0000
0001
0000
0100
0000
1000
0000
,  // measure 50
0000
0100
0010
0001
1000
0001
0100
1000
,  // measure 51
0002
0010
0010
0013
0200
0010
0010
0310
,  // measure 52
1001
0000
0000
0000
0010
0001
0100
1000
,  // measure 53
0000
0000
0010
0001
0000
0010
0100
0000
0010
0000
0001
0000
0100
0000
1000
0000
,  // measure 54
0000
0001
0100
0010
0001
1000
0001
0100
,  // measure 55
2000
0100
0100
3100
0002
0010
0010
0013
,  // measure 56
0020
0000
0000
0030
,  // measure 57
0200
0000
0300
0000
0010
0001
0100
1000
,  // measure 58
0001
0000
0100
0100
0000
0000
0000
0000
,  // measure 59
0010
0001
0100
0010
0001
1000
0001
0100
,  // measure 60
2000
0000
0000
3000
,  // measure 61
0200
0000
0020
0330
,  // measure 62
0002
0000
0000
0003
,  // measure 63
2000
0000
0200
3300
,  // measure 64
0000
0000
0000
0000
0000
0000
0000
0000
0100
0001
0000
0010
0100
0000
0001
0000
,  // measure 65
0000
0000
0000
0000
0100
0000
0000
0000
0001
1000
0000
0001
0100
0001
1000
0000
,  // measure 66
0000
0000
0000
0000
0100
0000
0000
0000
0001
0000
0000
0100
0000
0000
0010
0000
,  // measure 67
0010
0000
0100
0000
0100
1000
0100
0010
,  // measure 68
0001
0000
0000
0000
1000
0000
0100
0001
0100
0001
0010
0100
0001
0000
0010
0000
,  // measure 69
0000
0000
0000
0000
0010
0000
0001
0100
0010
0001
1000
0001
0100
0000
1000
0000
,  // measure 70
0000
0000
0000
0000
0001
0100
0010
0001
1000
0001
0100
0001
0100
0000
1000
0000
,  // measure 71
0000
0000
0000
0000
0010
0001
0100
0010
0001
1000
0001
0100
0010
0100
1000
0001
,  // measure 72
0010
0000
0000
0000
;
