#VERSION:0.83;
#TITLE:giants;
#SUBTITLE:;
#ARTIST:Dempsy Bolton;
#TITLETRANSLIT:;
#SUBTITLETRANSLIT:;
#ARTISTTRANSLIT:;
#GENRE:;
#ORIGIN:;
#CREDIT:;
#BANNER:;
#BACKGROUND:;
#PREVIEWVID:;
#JACKET:;
#CDIMAGE:;
#DISCIMAGE:;
#LYRICSPATH:;
#CDTITLE:;
#MUSIC:GIANTS.ogg;
#OFFSET:0.000000;
#SAMPLESTART:100.059883;
#SAMPLELENGTH:12.000000;
#SELECTABLE:YES;
#BPMS:0.000=160.000;
#STOPS:0.000=0.100;
#DELAYS:;
#WARPS:;
#TIMESIGNATURES:0.000=4=4;
#TICKCOUNTS:0.000=4;
#COMBOS:0.000=1;
#SPEEDS:0.000=1.000=0.000=0;
#SCROLLS:0.000=1.000;
#FAKES:;
#LABELS:0.000=Song Start;
#BGCHANGES:;
#KEYSOUNDS:;
#ATTACKS:
;

//---------------dance-single - ----------------
#NOTEDATA:;
#CHARTNAME:;
#STEPSTYPE:dance-single;
#DESCRIPTION:;
#CHARTSTYLE:;
#DIFFICULTY:Hard;
#METER:15;
#RADARVALUES:0.731572,0.826041,0.014405,0.043215,0.363728,711.000000,709.000000,2.000000,6.000000,0.000000,0.000000,0.000000,0.000000,0.000000,0.731572,0.826041,0.014405,0.043215,0.363728,711.000000,709.000000,2.000000,6.000000,0.000000,0.000000,0.000000,0.000000,0.000000;
#CREDIT:;
#NOTES:
// measure 0
0000
0000
0000
0000
,  // measure 1
0000
0000
0000
0000
,  // measure 2
0000
0000
0000
0000
,  // measure 3
0000
0000
0000
0000
,  // measure 4
0001
0000
0100
0000
0010
0000
0100
0010
0001
0100
0001
0000
0100
0000
0010
0000
,  // measure 5
0001
0000
0100
0000
0010
0000
0001
1000
0100
0010
0100
0000
0010
0000
0100
0000
,  // measure 6
0100
0000
0010
0000
0100
0000
0010
0001
0100
0001
0100
0000
1000
0000
0100
0000
,  // measure 7
0001
0000
0100
0000
0001
0000
1000
0100
0001
0010
0100
0000
0010
0000
0001
0000
,  // measure 8
0100
0000
0001
0000
0100
0000
0010
0100
0001
0100
1000
0000
0010
0000
0100
0000
,  // measure 9
0001
0000
0100
0000
0010
0000
0001
0100
0001
0100
1000
0000
0010
0000
0001
0000
,  // measure 10
0100
0000
0010
0000
0001
0000
0100
0010
0100
0001
1000
0000
0010
0000
0001
0000
,  // measure 11
0100
0000
0001
0000
0100
0000
0001
0010
1000
0001
0100
0000
0001
0010
0100
0000
,  // measure 12
0010
0000
0001
0100
0010
0100
0001
0100
,  // measure 13
0000
0100
0010
0001
0100
0001
0100
1000
,  // measure 14
0100
0010
0100
0000
0001
1000
0100
0000
,  // measure 15
0001
0100
0001
0000
0010
0100
0001
0000
,  // measure 16
0100
0000
0010
0001
0100
0001
0100
1000
,  // measure 17
0000
0000
0010
0001
0100
0001
0100
1000
,  // measure 18
0001
0100
0010
0000
0001
0100
0010
0000
,  // measure 19
0001
0100
0010
0000
0001
1000
0100
0000
,  // measure 20
0100
0000
0010
0001
0100
0001
0100
1000
,  // measure 21
0010
0000
0100
0010
0001
1000
0001
0100
,  // measure 22
0001
0000
0100
0010
0001
0100
0001
0100
,  // measure 23
1000
0010
0100
0010
0001
0100
0001
0100
,  // measure 24
0010
0000
1000
0001
0100
0010
0001
0100
,  // measure 25
1000
0010
0100
0010
0001
0100
0001
0100
,  // measure 26
1000
0100
0010
0000
0001
0100
0010
0010
,  // measure 27
0001
0100
0010
0010
0001
1000
0100
0000
,  // measure 28
0020
0000
0000
0000
,  // measure 29
0030
0000
0001
0100
1000
0001
0100
0000
,  // measure 30
0200
0000
0000
0000
,  // measure 31
0000
0000
0300
1001
,  // measure 32
0010
0000
0001
0000
0100
0000
0010
0100
0001
1000
0001
0000
0010
0000
0100
0000
,  // measure 33
0001
0000
0010
0000
0100
0000
0001
0010
0100
0001
1000
0000
0100
0000
0001
0000
,  // measure 34
0010
0000
0100
0000
0001
0000
1000
0010
0100
0001
0100
0000
0100
0000
0010
0000
,  // measure 35
0001
0000
0100
0000
0010
0000
0001
0100
0001
1000
0100
0000
0100
0000
0010
0000
,  // measure 36
0001
0000
0100
0000
0010
0000
0001
0100
0001
0100
1000
0000
0100
0000
0010
0000
,  // measure 37
0001
0000
0100
0000
0010
0000
0001
0100
0001
0100
1000
0000
0001
0000
0100
0000
,  // measure 38
1000
0000
0100
0000
0010
0000
0001
0100
0001
0100
1000
0000
0100
0000
0010
0000
,  // measure 39
0001
0000
0100
0000
0010
0000
0001
0100
0001
0100
1000
0000
0010
0001
0100
0000
,  // measure 40
0010
0000
0001
0000
0100
0000
0010
0001
0100
1000
0001
0000
0100
0000
0010
0000
,  // measure 41
0001
0000
0100
0000
0010
0000
0100
0001
1000
0010
0100
0000
0001
0000
0100
0000
,  // measure 42
0001
0000
0100
0000
0010
0000
0001
0100
0001
0100
1000
0000
0100
0000
0010
0000
,  // measure 43
0001
0000
0100
0000
0010
0000
0001
0100
0001
0100
1000
0000
0010
0001
0100
0000
,  // measure 44
0001
0000
0100
0000
0010
0000
0001
0100
0001
0100
1000
0000
0100
0000
0010
0000
,  // measure 45
0001
0000
0100
0000
0010
0000
0001
0100
0001
0100
1000
0000
0100
0000
0001
0000
,  // measure 46
0100
0000
0010
0000
0100
0000
0001
0100
0001
1000
0001
0000
0010
0000
0100
0000
,  // measure 47
0001
0000
0010
0000
0100
0000
0010
0100
0001
1000
0001
0000
0010
0100
0001
0000
,  // measure 48
0100
0000
1000
0010
0001
0010
0100
0010
,  // measure 49
0000
0000
0100
0010
0001
0100
0001
0100
,  // measure 50
1000
0010
0100
0000
0001
0100
0010
0000
,  // measure 51
0001
0100
0010
0000
0001
0100
1000
0000
,  // measure 52
0010
0000
0100
0010
0001
0100
0001
0100
,  // measure 53
0000
0100
0010
0100
0001
0100
1000
0010
,  // measure 54
0001
0100
0010
0000
0001
1000
0100
0100
,  // measure 55
0010
0100
0010
0100
0010
0100
0001
0100
,  // measure 56
1000
0010
0100
0010
0001
0100
0001
0100
,  // measure 57
1000
0010
0100
0010
0001
0100
0001
0100
,  // measure 58
1000
0010
0100
0010
0001
0100
0001
0100
,  // measure 59
0010
0001
0100
0001
0100
0010
0100
1000
,  // measure 60
0100
0010
0100
0100
0010
1000
0010
0100
,  // measure 61
0010
0001
0100
0001
0100
0010
0001
1000
,  // measure 62
0001
0100
0010
0001
0100
0001
0100
0010
,  // measure 63
0001
0100
0001
0100
0010
0100
0001
0100
,  // measure 64
2000
0000
0000
0000
,  // measure 65
3000
0000
0100
0001
0100
0001
0010
0100
,  // measure 66
0020
0000
0000
0000
,  // measure 67
0030
0000
0010
0001
0001
0100
0001
0100
,  // measure 68
2000
0000
0000
0000
,  // measure 69
3000
0000
0100
0010
0001
1000
0001
0100
,  // measure 70
2000
0000
0000
0000
,  // measure 71
0000
0000
3000
1001
,  // measure 72
0001
0000
0100
0000
0010
0000
0001
0100
0001
0100
1000
0000
0100
0000
0010
0000
,  // measure 73
0001
0000
0100
0000
0010
0000
0001
0100
0001
0100
1000
0000
0010
0000
0100
0000
,  // measure 74
0001
0000
0100
0000
0010
0000
0001
1000
0001
0100
0010
0000
0100
0000
0001
0000
,  // measure 75
0100
0000
0001
0000
0100
0000
0010
0001
1000
0001
0100
0000
0100
0000
0010
0000
,  // measure 76
0001
0000
1000
0000
0100
0000
0010
0100
0001
1000
0001
0000
0010
0000
0100
0000
,  // measure 77
0001
0000
1000
0000
0001
0000
0010
0001
0100
0010
0001
0000
0100
0000
0010
0000
,  // measure 78
0100
0000
0001
0000
0100
0000
0010
0100
0001
0100
1000
0000
0010
0000
0100
0000
,  // measure 79
0001
0000
0100
0000
0010
0000
0001
0100
0001
0100
1000
0000
0010
0100
0001
0000
,  // measure 80
0100
0000
0010
0100
0001
0000
1000
0100
0001
0010
0100
0000
0001
0000
0010
0000
,  // measure 81
0100
0000
0001
0000
1000
0000
0100
0001
0010
0100
0001
0000
1000
0000
0100
0000
,  // measure 82
0001
0000
0010
0000
0100
0000
0001
0010
0100
0001
1000
0000
0100
0000
0001
0000
,  // measure 83
0010
0000
0001
0000
0100
0000
0010
0001
1000
0001
0100
0000
0010
0100
0001
0000
,  // measure 84
0010
0000
0100
0000
0010
0000
0001
0100
0001
0100
1000
0000
0100
0000
0010
0000
,  // measure 85
0100
0000
0001
0000
0100
0000
0010
0001
1000
0001
0100
0000
0100
0000
0010
0000
,  // measure 86
0100
0000
0001
0000
0100
0000
0010
0100
0001
0100
1000
0000
0010
0000
0100
0000
,  // measure 87
0001
0000
0100
0000
0010
0000
0001
0100
0001
1000
0010
0000
0010
0001
0100
0010
,  // measure 88
0100
0000
0010
0100
0001
0000
1000
0100
0001
0100
0010
0000
0010
0000
0100
0000
,  // measure 89
0100
0000
0010
0001
0100
0000
0010
0100
0001
0100
1000
0000
0100
0000
0010
0000
,  // measure 90
0100
0000
0001
1000
0100
0000
0001
0100
0001
0010
0100
0000
0001
0000
0100
0000
,  // measure 91
0000
0000
0001
0010
0100
0000
0010
0001
0100
0010
0001
0000
0100
0000
0000
0000
;
