#TITLE:ghettomusick;
#SUBTITLE:;
#ARTIST:OutKast;
#TITLETRANSLIT:;
#SUBTITLETRANSLIT:;
#ARTISTTRANSLIT:;
#GENRE:;
#CREDIT:;
#BANNER:;
#BACKGROUND:;
#LYRICSPATH:;
#CDTITLE:;
#MUSIC:Outkast - GhettoMusick (Official HD Video).ogg;
#OFFSET:0.000000;
#SAMPLESTART:100.059883;
#SAMPLELENGTH:12.000000;
#SELECTABLE:YES;
#BPMS:0.000000=261.000000
,184.000000=257.000000
,197.000000=239.000000
,200.000000=271.000000
,256.000000=251.999985
,264.000000=258.000000
,328.000000=153.000000
,391.000000=123.000000
,392.000000=261.000000
,568.000000=266.000000
,616.000000=261.000000
,684.000000=152.000000
,748.000000=261.000000
;
#STOPS:0.000000=0.500000,
616.000000=24.299999
;
#BGCHANGES:0.000=Outkast - GhettoMusick (Official HD Video).mp4=1.000=0=0=1=====,
99999=-nosongbg-=1.000=0=0=0 // don't automatically add -songbackground-
;
#KEYSOUNDS:;
#ATTACKS:;

//---------------dance-single - ----------------
#NOTES:
     dance-single:
     :
     Hard:
     13:
     0.622760,0.752163,0.018888,0.000000,0.000000,1154.000000,1149.000000,5.000000,0.000000,0.000000,0.000000,0.622760,0.752163,0.018888,0.000000,0.000000,1154.000000,1149.000000,5.000000,0.000000,0.000000,0.000000:
// measure 0
0000
0000
0000
0000
,  // measure 1
0000
0000
0000
0000
,  // measure 2
1000
0010
0000
1000
0010
0000
0100
1000
,  // measure 3
0000
0010
1000
0000
0100
0000
0000
0000
,  // measure 4
0100
0001
0000
1000
0100
0000
0001
0010
,  // measure 5
0000
0100
0001
0000
0100
0000
0000
0000
,  // measure 6
0100
0001
0000
1000
0100
0000
0001
0100
,  // measure 7
0000
0001
0100
0000
0010
0000
0000
0000
,  // measure 8
0100
0001
1000
0010
0100
0001
1000
0100
,  // measure 9
0000
0010
0100
0000
0001
0000
0000
0000
,  // measure 10
0100
0001
0000
1000
0100
0000
0001
0010
,  // measure 11
0000
0100
0001
0010
1000
0000
0000
0000
,  // measure 12
0100
0001
1000
0100
0001
0100
0001
0010
,  // measure 13
0000
0100
0001
0000
0010
0000
0000
0000
,  // measure 14
1000
0001
0000
0100
0010
0000
0100
0001
,  // measure 15
0000
0001
0100
0000
0010
0000
0000
0000
,  // measure 16
0010
0001
0000
0100
1000
0000
0001
0100
,  // measure 17
0000
0010
0001
0000
0100
0000
0000
0000
,  // measure 18
1000
0100
0001
1000
0100
0100
0000
0001
,  // measure 19
0100
0001
0000
1000
0100
0001
0000
0100
,  // measure 20
0001
0010
0000
0100
0001
1000
0000
0100
,  // measure 21
0001
0010
0000
0100
0001
0010
0000
0100
,  // measure 22
0000
0100
0001
0010
0000
0100
0000
0001
,  // measure 23
0000
0100
0010
0000
0001
1000
0000
0100
,  // measure 24
0000
0010
0000
0001
0100
1000
0000
0100
,  // measure 25
0000
0100
0001
0000
1000
0000
0000
0000
,  // measure 26
0010
0001
1000
0001
0100
1000
0000
0100
,  // measure 27
0001
0010
0000
1000
0100
0001
0000
0100
,  // measure 28
0001
0010
0000
0100
0001
1000
0000
0100
,  // measure 29
0001
0010
0000
0100
0001
1000
0000
0100
,  // measure 30
0000
0010
0000
0100
0001
0010
0000
0001
,  // measure 31
0000
1000
0100
0000
0100
0001
0000
0100
,  // measure 32
0000
0010
0000
0001
0100
1000
0000
0100
,  // measure 33
0000
0001
0010
0000
0000
0000
0000
0000
,  // measure 34
1000
0000
0100
0000
0001
0000
0000
0100
,  // measure 35
0010
0001
1000
0000
,  // measure 36
0001
0100
0010
0001
,  // measure 37
1000
0001
0100
1000
,  // measure 38
0001
1000
0001
0100
,  // measure 39
0010
0001
0100
0001
,  // measure 40
0100
0010
0001
1000
,  // measure 41
0001
0100
0010
0001
,  // measure 42
1000
0001
0100
0010
,  // measure 43
0001
0100
0010
0000
0001
0100
1000
0000
,  // measure 44
0010
0001
0100
0010
0001
1000
0001
0100
,  // measure 45
1000
0001
0100
0010
0001
1000
0001
0100
,  // measure 46
1000
0000
0000
0000
,  // measure 47
0000
0000
0000
0000
,  // measure 48
0000
0000
0000
0000
,  // measure 49
0000
0000
0100
0010
0001
1000
0001
0100
,  // measure 50
1000
0100
0100
0001
,  // measure 51
0001
0010
0100
0100
,  // measure 52
0010
1000
0100
0001
,  // measure 53
0001
1000
0010
0100
,  // measure 54
0100
0100
0100
0100
,  // measure 55
0001
0001
0010
0100
,  // measure 56
0100
0001
0001
0010
,  // measure 57
1000
0100
0001
0001
,  // measure 58
1000
0010
1000
0100
,  // measure 59
0001
0001
0010
1000
,  // measure 60
0100
0001
0001
0100
,  // measure 61
0001
0001
0001
0001
,  // measure 62
0010
1000
0100
0001
,  // measure 63
0001
0010
1000
0100
,  // measure 64
1000
0100
0001
0100
,  // measure 65
1000
0001
0100
0010
,  // measure 66
1000
0100
0001
0100
0001
0010
0000
0100
,  // measure 67
0001
1000
0000
0100
0001
0010
0000
1000
,  // measure 68
0100
0001
0000
0001
0100
0010
0000
0100
,  // measure 69
0001
1000
0000
0000
0100
0001
0000
0010
,  // measure 70
0000
0100
0000
0001
0010
0100
0000
0001
,  // measure 71
0000
0010
0100
0000
0100
0010
0000
0001
,  // measure 72
0000
1000
0000
0001
0100
0010
0000
0100
,  // measure 73
0000
0100
0001
0000
1000
0000
0000
0000
,  // measure 74
0100
0001
1000
0100
0010
0100
0000
1000
,  // measure 75
0100
0001
0000
0010
0100
0001
0000
1000
,  // measure 76
0100
0001
0000
0010
0100
0001
0000
1000
,  // measure 77
0100
0001
0000
0000
0010
0100
0000
0010
,  // measure 78
0000
0100
0000
0001
1000
0100
0000
0001
,  // measure 79
0000
0010
0100
0000
0001
1000
0000
0100
,  // measure 80
0000
0001
0000
0010
0100
0001
0000
1000
,  // measure 81
0000
0100
0001
0000
0000
0000
0000
0000
,  // measure 82
0001
0100
0001
0100
,  // measure 83
0001
0100
0010
0001
,  // measure 84
1000
0001
0100
0010
,  // measure 85
0001
0100
0001
0100
,  // measure 86
0010
0000
0001
0000
1000
0000
0001
0010
,  // measure 87
0100
0000
0001
0010
0100
0000
0001
0000
,  // measure 88
0100
0000
0010
0100
0001
0000
1000
0100
,  // measure 89
0001
0000
0100
0100
0010
0000
0001
0000
,  // measure 90
1001
0001
0100
0010
,  // measure 91
0001
1000
0001
0100
,  // measure 92
1000
0001
0100
0001
,  // measure 93
0100
0010
0001
1000
,  // measure 94
0001
0000
0100
0000
0010
0000
0001
1000
,  // measure 95
0100
0000
0001
0100
1000
0000
0100
0000
,  // measure 96
0010
0000
0001
0100
1000
0000
0001
0100
,  // measure 97
0001
0100
0001
1000
0100
0000
0100
0000
,  // measure 98
1000
0000
0100
0000
0001
0000
0010
0100
,  // measure 99
0001
1000
0001
0100
0010
0001
0100
0001
,  // measure 100
0100
0010
0001
1000
0001
0100
1000
0000
,  // measure 101
0100
0001
1000
0001
0010
0000
0100
0010
,  // measure 102
0001
1000
0001
0100
1000
0100
0001
0100
,  // measure 103
0010
0100
0001
0100
0001
1000
0100
0010
,  // measure 104
0100
0000
0000
0001
0000
0000
0010
0100
,  // measure 105
0000
0001
0010
0100
0001
0000
1000
0000
,  // measure 106
0000
0100
0001
0000
0000
0000
0000
0000
,  // measure 107
0010
0001
0100
0010
1000
0000
0000
0001
,  // measure 108
0000
0010
0100
0001
0100
0001
0100
1000
,  // measure 109
0010
0001
0010
0100
0001
0000
0000
0100
,  // measure 110
0000
0100
0001
1000
0001
0010
0000
0100
,  // measure 111
0000
0100
0001
0000
0010
0100
0000
0001
,  // measure 112
1000
0000
0001
0100
0000
0010
0000
0100
,  // measure 113
0000
1000
0000
0100
0001
0000
0100
0001
,  // measure 114
0000
1000
0100
0000
0001
0010
0000
0001
,  // measure 115
1000
0001
0100
0100
0001
0000
1000
0100
,  // measure 116
0001
0010
0100
0001
0000
1000
0000
0100
,  // measure 117
0000
0001
1000
0100
0001
0000
0000
0000
,  // measure 118
0010
0001
0100
0001
0100
0001
1000
0100
,  // measure 119
0001
0100
0010
0001
0100
0001
1000
0100
,  // measure 120
0000
0100
0001
0100
0001
1000
0001
0100
,  // measure 121
0001
0100
0010
0001
0100
0001
0100
1000
,  // measure 122
0000
0001
0100
0100
,  // measure 123
0010
0000
0001
0100
1000
0000
0100
0000
,  // measure 124
0001
0000
0010
0100
0000
0000
0001
0100
,  // measure 125
0010
0001
1000
0001
0100
1000
0001
1000
,  // measure 126
0001
0100
0000
0001
0000
0100
0000
0010
,  // measure 127
0000
0001
1000
0001
0100
0001
0010
0000
,  // measure 128
0001
0100
0010
0001
0100
0001
0100
1000
,  // measure 129
0000
0100
0001
1000
0001
0010
0100
0000
,  // measure 130
0001
0000
1000
0000
0001
0010
0100
0010
,  // measure 131
0001
0000
0100
0010
0010
0100
0001
0010
,  // measure 132
0100
0000
0010
0001
0001
0010
0100
0010
,  // measure 133
0001
0000
0100
0010
0001
0010
0100
0000
,  // measure 134
1000
0001
0010
0000
0100
0000
0001
1000
,  // measure 135
0001
0010
0100
0000
0010
0100
0001
1000
,  // measure 136
0001
1000
0100
0010
0100
0000
0001
1000
,  // measure 137
0001
0100
0001
1000
0100
0000
0010
0000
,  // measure 138
0001
1000
0001
0100
,  // measure 139
0010
0001
0100
0001
,  // measure 140
0100
0010
0001
1000
,  // measure 141
0001
0100
0010
1000
,  // measure 142
1001
0000
0000
0001
,  // measure 143
0100
0010
0001
0100
,  // measure 144
0010
0100
0001
0100
,  // measure 145
0001
0100
0001
0100
,  // measure 146
1000
0000
0000
0001
,  // measure 147
0100
0010
0001
1000
,  // measure 148
0001
0100
0010
0001
,  // measure 149
1000
0001
0100
0010
,  // measure 150
1001
0000
0000
0010
,  // measure 151
0001
0100
0001
0100
,  // measure 152
0010
0001
1000
0001
,  // measure 153
0100
0001
0100
0100
,  // measure 154
0000
0000
0000
0000
,  // measure 155
0001
0100
1000
0100
0010
0100
0000
0001
,  // measure 156
0010
0100
0000
0001
1000
0100
0000
0100
,  // measure 157
0010
0001
0000
1000
0100
0001
0000
0010
,  // measure 158
0100
0001
0000
1000
0100
0001
0000
0100
,  // measure 159
0000
0010
0000
0100
0001
0100
0000
0001
,  // measure 160
0000
1000
0100
0000
0001
0010
0000
0100
,  // measure 161
0000
0001
0000
1000
0100
0001
0000
0010
,  // measure 162
0000
0100
0001
0000
1001
0000
0000
0000
,  // measure 163
0010
0001
1000
0001
0100
1000
0000
0100
,  // measure 164
0001
0010
0000
0100
0001
1000
0000
0100
,  // measure 165
0001
0010
0000
0001
0100
0001
0000
1000
,  // measure 166
0100
0001
0000
0010
0100
0001
0000
1000
,  // measure 167
0000
0100
0000
0001
0010
0100
0000
0001
,  // measure 168
0000
1000
0100
0000
0001
0010
0000
0100
,  // measure 169
0000
0001
0000
1000
0100
0001
0000
0010
,  // measure 170
0000
0100
0001
0000
0000
0000
0000
0000
,  // measure 171
0100
0010
0001
1000
,  // measure 172
0001
0100
0010
0001
,  // measure 173
0100
0001
0100
0001
,  // measure 174
0100
0010
0001
1000
,  // measure 175
0001
0000
0100
0000
0010
0000
0100
1000
,  // measure 176
0001
0000
0001
0100
1000
0000
0100
0000
,  // measure 177
0010
0000
0001
0100
1000
0000
0001
0100
,  // measure 178
0010
0000
0001
0100
1000
0000
0010
0000
,  // measure 179
1001
0001
0100
0010
,  // measure 180
0001
1000
0001
0100
,  // measure 181
0010
0001
0100
0001
,  // measure 182
0100
0010
0001
1000
,  // measure 183
0001
0000
0100
0000
0010
0000
0001
0100
,  // measure 184
1000
0000
0010
0001
0100
0000
0100
0000
,  // measure 185
0010
0000
1000
0001
0100
0000
0010
0001
,  // measure 186
0100
0010
0100
1000
0001
0000
1000
0000
,  // measure 187
0100
0010
0000
0001
0100
0000
0001
1000
,  // measure 188
0000
0100
0001
0000
0001
0000
0100
0000
,  // measure 189
0010
0100
0000
0001
1000
0000
0100
0001
,  // measure 190
0000
0010
0100
0000
0001
0000
1000
0000
,  // measure 191
0100
0001
0000
0010
0100
0000
0001
1000
,  // measure 192
0000
0100
0001
0000
0010
0000
0100
0000
,  // measure 193
0100
0001
0000
1000
0100
0000
0001
0010
,  // measure 194
0000
0100
0001
0000
1000
0000
0100
0000
,  // measure 195
0001
0100
0000
0001
0100
0000
0010
0100
,  // measure 196
0000
0001
1000
0000
0100
0000
0001
0000
,  // measure 197
0100
0001
0000
1000
0100
0000
0001
0010
,  // measure 198
0000
0100
0001
0000
1000
0000
0100
0000
,  // measure 199
0010
0001
0000
0100
1000
0000
0001
0010
,  // measure 200
0000
0010
0010
0000
0100
0000
0010
0000
,  // measure 201
0010
0100
0000
1000
0001
0000
0100
0010
,  // measure 202
0000
0100
0010
0000
0100
0000
0010
0000
,  // measure 203
0100
0001
0000
1000
0100
0000
0001
0010
,  // measure 204
0000
0100
0001
0000
1000
0000
0100
0000
,  // measure 205
0010
0100
0000
0001
1000
0000
0100
0001
,  // measure 206
0000
0010
0100
0000
0001
0000
1000
0000
,  // measure 207
0100
0001
0000
0010
0100
0000
0001
1000
,  // measure 208
0000
0100
0001
0000
0010
0000
0100
0000
,  // measure 209
0010
0100
0000
0001
1000
0000
0100
0001
,  // measure 210
0000
0010
0100
0000
0001
0000
1000
0000
,  // measure 211
0100
0001
0000
0010
0100
0000
0001
1000
,  // measure 212
0000
0100
0001
0000
0010
0000
0100
0000
,  // measure 213
0001
0100
0000
0001
1000
0000
0010
0001
,  // measure 214
0000
0100
0001
0000
0010
0000
0100
0000
,  // measure 215
0010
0100
0000
0001
1000
0000
0100
0001
,  // measure 216
0000
0010
0100
0000
0001
0000
0100
0000
,  // measure 217
0100
0001
0000
1000
0100
0000
0001
0100
,  // measure 218
0000
0010
0100
0000
0001
0000
1000
0000
,  // measure 219
0100
0001
0000
0100
1000
0000
0100
0001
,  // measure 220
0000
0010
0100
0000
0001
0000
1000
0000
,  // measure 221
0100
0010
0000
0100
0001
0000
1000
0100
,  // measure 222
0000
0010
0100
0000
0001
0000
1000
0000
,  // measure 223
0100
0001
0000
0010
0100
0000
0001
1000
,  // measure 224
0000
0100
0001
0000
0010
0000
0100
0000
,  // measure 225
0010
0100
0000
0001
1000
0000
0100
0001
,  // measure 226
0000
0010
0100
0000
0001
0000
1000
0000
,  // measure 227
0100
0001
0000
0010
0100
0000
0001
1000
,  // measure 228
0000
0100
0001
0000
0010
0000
0100
0000
,  // measure 229
0100
0010
0000
0100
0001
0000
1000
0100
,  // measure 230
0000
0001
0010
0000
0100
0000
0001
0000
,  // measure 231
0001
0100
0000
0100
0010
0000
1000
0100
,  // measure 232
0000
0001
0010
0000
0100
0000
0001
0000
,  // measure 233
0010
0100
0000
0001
1000
0000
0100
0001
,  // measure 234
0000
0001
0010
0000
0000
0000
0000
0000
;
