#VERSION:0.83;
#TITLE:ghetto love story;
#SUBTITLE:;
#ARTIST:BabyChiefDoIt;
#TITLETRANSLIT:;
#SUBTITLETRANSLIT:;
#ARTISTTRANSLIT:;
#GENRE:;
#ORIGIN:;
#CREDIT:;
#BANNER:;
#BACKGROUND:;
#PREVIEWVID:;
#JACKET:;
#CDIMAGE:;
#DISCIMAGE:;
#LYRICSPATH:;
#CDTITLE:;
#MUSIC:BabyChiefDoIt - Ghetto Love Story (Official Audio).ogg;
#OFFSET:0.000000;
#SAMPLESTART:100.059883;
#SAMPLELENGTH:12.000000;
#SELECTABLE:YES;
#BPMS:0.000=140.000;
#STOPS:0.000=0.100;
#DELAYS:;
#WARPS:;
#TIMESIGNATURES:0.000=4=4;
#TICKCOUNTS:0.000=4;
#COMBOS:0.000=1;
#SPEEDS:0.000=1.000=0.000=0;
#SCROLLS:0.000=1.000;
#FAKES:;
#LABELS:0.000=Song Start;
#BGCHANGES:;
#KEYSOUNDS:;
#ATTACKS:
;

//---------------dance-single - ----------------
#NOTEDATA:;
#CHARTNAME:;
#STEPSTYPE:dance-single;
#DESCRIPTION:;
#CHARTSTYLE:;
#DIFFICULTY:Hard;
#METER:12;
#RADARVALUES:0.500290,0.672389,0.151288,0.268956,0.280162,625.000000,598.000000,27.000000,48.000000,0.000000,0.000000,0.000000,0.000000,0.000000,0.500290,0.672389,0.151288,0.268956,0.280162,625.000000,598.000000,27.000000,48.000000,0.000000,0.000000,0.000000,0.000000,0.000000;
#CREDIT:;
#NOTES:
// measure 0
0000
0000
0000
0000
,  // measure 1
0000
0000
0000
0000
,  // measure 2
0010
0000
0100
0000
0001
0000
0000
0000
0100
0000
0001
0000
0010
0000
0100
0002
,  // measure 3
0000
0000
0000
0000
0000
0003
0000
0000
0001
0000
0100
0000
0010
0000
0100
0002
,  // measure 4
0000
0000
0000
0000
0000
0003
1001
0000
,  // measure 5
0010
0100
0001
1000
,  // measure 6
0001
0000
0010
0000
0010
0000
0100
0001
,  // measure 7
0010
0000
0000
0100
0000
0000
0010
0000
0000
0100
0010
0100
,  // measure 8
0001
0000
1000
0000
0001
0000
0010
0000
0000
0100
0000
0000
0001
0000
0000
0010
0000
0000
1000
0000
0000
0000
0000
0000
,  // measure 9
0100
0000
0000
0000
0010
0000
0000
0000
0100
0000
0000
0000
0001
0000
0000
0000
1000
0000
0000
0000
0001
0000
0000
0000
0010
0000
0000
0000
0000
0000
0100
0000
0000
0000
0000
0000
0001
0000
0000
0010
0000
0000
0000
0000
0000
0000
0000
0000
,  // measure 10
0010
0000
0100
0000
0001
1000
0100
0000
0010
0000
0100
0000
0001
1000
0100
0000
,  // measure 11
0010
0000
0100
0000
0001
1000
0100
0010
0001
0000
0100
0000
0010
0100
0000
0000
,  // measure 12
0010
0000
0100
0000
0001
0000
1000
0000
0000
0010
0000
0000
0100
0000
0001
0000
1000
0000
0100
0000
0000
0001
0000
0000
,  // measure 13
1000
0000
0001
0000
0100
0000
0010
0000
0100
0000
0000
0010
0001
0100
0000
0000
,  // measure 14
0100
0000
0010
0000
0001
0000
0100
0010
0001
0000
0100
0010
1000
0000
0000
0000
,  // measure 15
0010
0000
0100
0000
0001
0010
0100
0000
0001
0000
0100
0000
0010
0100
0001
0000
,  // measure 16
0010
0000
0010
0000
0001
0000
1000
0000
0001
0000
0100
0000
0010
0000
0100
0001
,  // measure 17
0000
0000
0100
0000
0010
0000
0100
0000
0001
0000
1000
0000
0100
0000
0001
0010
,  // measure 18
0000
0000
0000
0000
0100
0000
0010
0000
0001
0000
0100
0000
0001
0000
0100
0001
,  // measure 19
0000
0000
0001
0000
1000
0000
0001
0000
0100
0000
0010
0000
0001
0100
0000
0001
,  // measure 20
0000
0000
0000
0000
0000
0000
0001
0000
0100
0000
0001
0000
0100
0010
0000
0100
,  // measure 21
0000
0000
0001
0000
1000
0000
0001
0000
0100
0000
0010
0000
1000
0100
0000
0001
,  // measure 22
0000
0000
0000
0100
0010
0000
0001
0000
0100
0000
0001
0000
0100
0000
0001
0000
,  // measure 23
0010
0000
0000
0100
0000
0000
0001
1000
0100
0000
0001
0000
0010
0000
0100
0001
,  // measure 24
0020
0030
0200
0002
,  // measure 25
0000
0303
2000
0200
,  // measure 26
0000
0000
0000
0000
3300
0000
0000
0000
0100
0000
0010
0000
0001
0000
0100
0020
,  // measure 27
0000
0000
0000
0000
0000
0000
0030
0000
0100
0000
1000
0000
0100
0000
0001
0020
,  // measure 28
0000
0000
0000
0030
0200
0000
2000
0000
,  // measure 29
0000
0000
3300
0000
0010
0100
0001
1000
,  // measure 30
0002
0000
0003
0000
0010
0100
0001
1000
,  // measure 31
0002
0000
0000
0000
0003
0000
0000
0000
0001
0000
0100
0000
0010
0000
0001
0100
,  // measure 32
0000
0000
0010
0000
0100
0001
1000
0000
0100
0000
0010
0000
0001
0000
0000
0000
,  // measure 33
0001
0000
0100
0000
0010
0000
0001
0000
1000
0000
0001
0000
0100
0000
0000
0010
0000
0000
0001
0000
0000
0000
0000
0000
,  // measure 34
0011
0000
0010
0000
0100
0001
0000
1000
0100
0000
0010
0000
0001
0000
1000
0100
,  // measure 35
0001
0000
0010
0000
0100
0001
1000
0010
0100
0000
0001
1000
0100
0000
0000
0000
,  // measure 36
0100
0010
0001
0100
1001
0000
0000
0100
,  // measure 37
0001
0000
0000
0010
0000
0100
0001
0000
0100
0010
1000
0000
0100
0000
0000
0000
,  // measure 38
0010
0000
0100
0000
0001
0000
1000
0010
0001
0000
0100
0000
0001
0000
0010
0000
,  // measure 39
0100
0000
0001
0000
0010
0000
0001
1000
0100
0001
0100
0001
0010
0000
0000
0000
,  // measure 40
0100
0000
0010
0000
0001
0000
1000
0000
0001
0000
0100
0000
0010
0000
0001
0100
,  // measure 41
0000
0000
0010
0000
0001
0000
1000
0000
0001
0000
0100
0000
0010
0000
0001
0100
,  // measure 42
0000
0000
0001
0000
1000
0000
0001
0000
0100
0000
0010
0000
0100
1000
0000
0001
,  // measure 43
0000
0000
0001
0000
1000
0000
0001
0000
0100
0000
0010
0000
0001
0100
0000
0010
,  // measure 44
0000
0000
0000
0000
0000
0000
0100
0000
0001
0000
1000
0000
0010
0100
0000
0001
,  // measure 45
0000
0000
0100
0000
0010
0000
0001
0000
0100
0000
0001
0000
0100
0010
0000
0100
,  // measure 46
0000
0100
0010
0001
1000
0001
0100
0010
,  // measure 47
0001
0100
0010
0001
0100
0001
1000
0100
,  // measure 48
2002
3003
0200
2000
,  // measure 49
0000
3300
0020
0200
,  // measure 50
0000
0000
0000
0000
0330
0000
0000
0000
0100
0000
0010
0000
0001
0000
0100
0020
,  // measure 51
0000
0000
0000
0000
0000
0000
0030
0000
0100
0000
0010
0000
0001
0000
0100
0020
,  // measure 52
0000
0000
0000
0030
2000
0000
0200
0000
,  // measure 53
0000
0000
3300
0000
0010
0100
0001
1000
,  // measure 54
0002
0000
0003
0000
0010
0100
0001
1000
,  // measure 55
0002
0000
0000
0000
0000
0000
0003
0000
0010
0000
0100
0000
0001
0000
1000
0200
,  // measure 56
0000
0300
0010
0001
,  // measure 57
0200
0300
0100
0001
,  // measure 58
2000
0000
0000
3000
,  // measure 59
0100
0000
0010
0000
0001
0000
0100
2000
,  // measure 60
0000
0000
0000
3000
0001
0000
0100
0000
,  // measure 61
0020
0030
0100
0002
,  // measure 62
0000
0000
0000
0003
,  // measure 63
0010
0000
0100
0000
0001
0000
0100
0010
,  // measure 64
1001
0000
0000
0000
0010
0100
0001
0000
1000
0000
0100
0001
0010
0100
0001
0000
,  // measure 65
1000
0000
0001
0000
0100
0000
0010
0000
0100
0010
0100
0010
0001
0000
0010
0000
,  // measure 66
0100
0000
0001
0000
1000
0000
0001
0010
0100
0000
0001
0000
0010
0000
0001
0000
,  // measure 67
1000
0000
0001
0000
0100
0001
0010
0000
0100
0001
1000
0000
0010
0000
0000
0000
,  // measure 68
0100
0000
0001
0000
1000
0000
0001
0000
0010
0000
0100
0000
0001
0000
0000
0100
0000
0000
1000
0000
0000
0000
0000
0000
,  // measure 69
0010
0000
0000
0000
0100
0000
0000
0000
0001
0000
0000
0000
1000
0000
0000
0000
0001
0000
0000
0000
0010
0000
0000
0000
0100
0000
0000
0010
0000
0000
0100
0000
0000
0000
0000
0000
0001
0000
0000
0000
0000
0000
0010
0000
0000
0100
0000
0000
,  // measure 70
0001
0000
0010
0000
0100
0000
0010
0000
0100
0001
0010
0100
0001
0010
0100
0000
,  // measure 71
0010
0000
0100
0000
0001
0000
0000
0000
0100
0010
0100
0000
0001
0000
0000
0000
,  // measure 72
0100
0010
0001
0100
0010
0001
0100
0001
,  // measure 73
0100
0010
0001
0100
0001
1000
0100
0001
,  // measure 74
0100
0000
0010
0000
0001
0000
1000
0000
0001
0000
0100
0000
0010
0000
0000
0100
,  // measure 75
0001
0100
0010
0001
1000
0001
0100
0010
,  // measure 76
0001
1000
0001
0100
0010
0100
0010
0001
,  // measure 77
0100
0001
0100
0010
0001
0100
0001
0100
,  // measure 78
0010
0001
0100
0001
0100
0010
0001
1000
,  // measure 79
0001
0100
0010
0001
0100
0001
0100
0010
,  // measure 80
2002
3003
0020
0200
,  // measure 81
0000
0330
0002
2000
,  // measure 82
0000
0000
0000
0000
3003
0000
0000
0000
0100
0000
0001
0000
0100
0000
0010
0200
,  // measure 83
0000
0000
0000
0000
0000
0000
0300
0000
0010
0000
0100
0000
0001
0000
1000
0200
,  // measure 84
0000
0000
0000
0300
0020
0000
0200
0000
,  // measure 85
0000
0000
0330
0000
0001
1000
0100
0001
,  // measure 86
0020
0000
0030
0000
0100
0001
1000
0001
,  // measure 87
0020
0000
0000
0000
0000
0000
0030
0000
0100
0000
0001
0000
1000
0000
0100
0001
,  // measure 88
0010
0100
0020
0030
,  // measure 89
0200
0000
0000
0300
,  // measure 90
0002
0000
0000
0003
,  // measure 91
0001
0000
0100
0000
0010
0000
0001
0100
,  // measure 92
1000
0000
0100
0001
1000
0100
0001
0000
,  // measure 93
0200
0000
0000
0000
0300
0000
0000
0000
0001
0000
1000
0000
0100
0000
0001
0020
,  // measure 94
0000
0000
0000
0030
,  // measure 95
0011
0101
0011
0101
,  // measure 96
0011
0101
0110
1100
,  // measure 97
0110
0101
0110
1100
,  // measure 98
0110
0101
0110
1100
,  // measure 99
0110
0101
1100
0110
,  // measure 100
0101
0000
0000
0000
;
