#TITLE:get go;
#SUBTITLE:;
#ARTIST:Arlo Parks;
#TITLETRANSLIT:;
#SUBTITLETRANSLIT:;
#ARTISTTRANSLIT:;
#GENRE:;
#CREDIT:;
#BANNER:;
#BACKGROUND:;
#LYRICSPATH:;
#CDTITLE:;
#MUSIC:Arlo Parks - Get Go (Official Video).ogg;
#OFFSET:0.000000;
#SAMPLESTART:100.059883;
#SAMPLELENGTH:12.000000;
#SELECTABLE:YES;
#BPMS:0.000000=124.999992
;
#STOPS:0.000000=0.250000
;
#BGCHANGES:0.000=Arlo Parks - Get Go (Official Video).mp4=1.000=0=0=1=====,
99999=-nosongbg-=1.000=0=0=0 // don't automatically add -songbackground-
;
#KEYSOUNDS:;
#ATTACKS:;

//---------------dance-single - ----------------
#NOTES:
     dance-single:
     :
     Hard:
     9:
     0.351077,0.453503,0.097136,0.140847,0.000000,506.000000,486.000000,20.000000,29.000000,0.000000,0.000000,0.351077,0.453503,0.097136,0.140847,0.000000,506.000000,486.000000,20.000000,29.000000,0.000000,0.000000:
// measure 0
0000
0000
0000
0000
,  // measure 1
0000
0000
0000
0000
,  // measure 2
0000
0000
0000
0000
,  // measure 3
0000
0000
0000
0000
,  // measure 4
0001
0100
0010
0001
1000
0001
0100
0000
,  // measure 5
0010
0000
0001
0100
0000
0010
1000
0000
,  // measure 6
0100
0010
0001
0100
0001
0100
1000
0000
,  // measure 7
0100
0000
0010
0001
0000
1000
0000
0200
,  // measure 8
0000
0000
0000
0300
,  // measure 9
0100
0000
0001
0010
0000
0100
0000
2000
,  // measure 10
0000
0000
0000
3000
,  // measure 11
1000
0000
0001
0100
0000
0010
0000
0001
,  // measure 12
0000
0100
0000
0010
0001
1000
0100
0000
,  // measure 13
0100
0000
0010
0100
0000
0001
0010
0000
,  // measure 14
0100
0001
1000
0001
0010
0100
0001
0000
,  // measure 15
0001
0000
0100
0010
0000
0001
0000
0200
,  // measure 16
0000
0000
0000
0300
,  // measure 17
0100
0000
1000
0001
0000
0100
0000
0020
,  // measure 18
0000
0000
0000
0030
,  // measure 19
0001
0000
0010
0100
0000
0010
0001
0100
,  // measure 20
0100
0010
0001
0100
0010
0001
1000
0001
,  // measure 21
0100
0010
0001
0100
0001
0100
1000
0000
,  // measure 22
0010
0001
0100
0010
0001
1000
0001
0100
,  // measure 23
0010
0001
0100
0001
0100
0000
1000
0000
,  // measure 24
0001
1000
0001
0100
0001
0010
0100
0010
,  // measure 25
0001
0100
1000
0001
0100
0000
0010
0000
,  // measure 26
0100
0010
0001
0100
0001
0100
1000
0001
,  // measure 27
0200
0000
0000
0300
,  // measure 28
0001
0100
0001
0100
0010
0001
1000
0001
,  // measure 29
0100
0010
0001
0100
0001
1000
0100
0000
,  // measure 30
0001
0100
0010
0001
1000
0001
0100
0010
,  // measure 31
0001
1000
0001
0100
0010
0000
1000
0001
,  // measure 32
0100
0010
0001
1000
0001
0100
0001
0100
,  // measure 33
0001
1000
0001
0100
0010
0000
0100
0000
,  // measure 34
0010
0100
0010
0001
1000
0001
0100
0010
,  // measure 35
0000
0100
0001
0010
0100
0010
0001
1000
,  // measure 36
0110
0220
0000
0000
,  // measure 37
0000
0000
0330
0001
0100
0001
0100
1000
,  // measure 38
0110
0220
0000
0000
,  // measure 39
0000
0000
0330
0001
1000
0001
0100
0010
,  // measure 40
1001
2002
0000
0000
,  // measure 41
0000
0000
0000
0000
,  // measure 42
0000
0000
0000
0000
,  // measure 43
0000
0000
0000
3003
,  // measure 44
0010
0010
0001
0100
0001
0100
1000
0010
,  // measure 45
0100
0000
0001
0010
0000
0010
0001
0000
,  // measure 46
0100
0010
0001
0100
0001
0100
1000
0000
,  // measure 47
0100
0000
0010
0001
0000
0100
0000
1000
,  // measure 48
0010
0001
0100
0010
0001
1000
0001
0100
,  // measure 49
0010
0000
0001
0100
0000
0001
0000
0200
,  // measure 50
0000
0000
0000
0300
,  // measure 51
0100
0000
0010
0001
0000
0100
0000
1000
,  // measure 52
0010
0001
1000
0001
0100
0010
0001
0100
,  // measure 53
0001
0000
0100
2000
0000
0000
0000
3000
,  // measure 54
0100
0010
0001
0100
0001
0100
1000
0000
,  // measure 55
0100
0000
0001
0100
0000
0010
0000
0100
,  // measure 56
0010
0001
1000
0001
0100
0010
1000
0100
,  // measure 57
0001
0000
0100
0010
0000
0100
0000
0002
,  // measure 58
0000
0000
0000
0000
0000
0000
0000
0003
,  // measure 59
0100
0000
0010
0001
0000
1000
0000
0100
,  // measure 60
0100
0010
0001
0100
0001
0100
1000
0010
,  // measure 61
0100
0010
0001
0100
0001
0100
1000
0000
,  // measure 62
0010
0100
0001
1000
0001
0010
0100
0001
,  // measure 63
0100
0001
0010
0100
0001
0000
0100
0000
,  // measure 64
0010
0001
0100
0001
0100
0010
0001
1000
,  // measure 65
0001
0100
0010
0001
1000
0000
0100
0000
,  // measure 66
0010
0001
1000
0001
0100
0001
0100
0010
,  // measure 67
0200
0000
0000
0300
,  // measure 68
0001
1000
0100
0001
0100
0001
0010
0100
,  // measure 69
0001
1000
0001
0010
0100
0001
0100
0000
,  // measure 70
0001
0100
0010
0001
0100
0001
0100
0010
,  // measure 71
0001
1000
0001
0100
0001
0000
0100
0010
,  // measure 72
0001
0100
0010
0001
0100
0001
0100
0010
,  // measure 73
0001
0100
0001
0100
1000
0000
0010
0000
,  // measure 74
0001
0100
0001
0100
0010
0001
1000
0001
,  // measure 75
0100
0010
0001
0100
0010
0001
0100
0001
,  // measure 76
1001
0220
0000
0000
,  // measure 77
0000
0000
0330
0010
0001
0100
0001
0100
,  // measure 78
1001
2002
0000
0000
,  // measure 79
0000
0000
3003
0100
0010
0001
1000
0001
,  // measure 80
0110
0220
0000
0000
,  // measure 81
0000
0000
0000
0000
,  // measure 82
0000
0000
0000
0000
,  // measure 83
0000
0000
0330
0010
0001
1000
0001
0100
,  // measure 84
1001
2002
0000
0000
,  // measure 85
0000
0000
3003
0010
0100
0001
1000
0001
,  // measure 86
0110
0220
0000
0000
,  // measure 87
0000
0000
0330
1000
0010
0001
0100
0010
,  // measure 88
1001
2002
0000
0000
,  // measure 89
0000
0000
0000
0000
,  // measure 90
0000
0000
0000
0000
,  // measure 91
0000
0000
0000
3003
,  // measure 92
0010
0100
0001
1000
0001
0010
0100
0000
,  // measure 93
0100
0010
0001
1000
0001
0100
0010
0000
,  // measure 94
0100
0010
0001
0100
0001
0100
1000
0000
,  // measure 95
0100
0001
0010
0001
1000
0001
0100
0010
,  // measure 96
1001
2002
0000
0000
,  // measure 97
0000
0000
0000
0000
,  // measure 98
0000
0000
0000
0000
,  // measure 99
0000
0000
0000
3003
,  // measure 100
0100
0010
0001
0100
0001
0100
1000
0000
,  // measure 101
0010
0100
0001
1000
0001
0010
0100
0000
,  // measure 102
0100
0010
0001
0100
0001
0100
1000
0000
,  // measure 103
0010
0001
0100
0010
0001
0100
1000
0000
;
