#VERSION:0.83;
#TITLE:gamerboi;
#SUBTITLE:;
#ARTIST:Vaeb & Dottir.x;
#TITLETRANSLIT:;
#SUBTITLETRANSLIT:;
#ARTISTTRANSLIT:;
#GENRE:;
#ORIGIN:;
#CREDIT:;
#BANNER:;
#BACKGROUND:;
#PREVIEWVID:;
#JACKET:;
#CDIMAGE:;
#DISCIMAGE:;
#LYRICSPATH:;
#CDTITLE:;
#MUSIC:gamerboi.ogg;
#OFFSET:0.000000;
#SAMPLESTART:100.059883;
#SAMPLELENGTH:12.000000;
#SELECTABLE:YES;
#BPMS:0.000=155.000;
#STOPS:0.000=0.100;
#DELAYS:;
#WARPS:;
#TIMESIGNATURES:0.000=4=4;
#TICKCOUNTS:0.000=4;
#COMBOS:0.000=1;
#SPEEDS:0.000=1.000=0.000=0;
#SCROLLS:0.000=1.000;
#FAKES:;
#LABELS:0.000=Song Start;
#BGCHANGES:0.000=gamerboi.mp4=1.000=0=0=1=====,
99999=-nosongbg-=1.000=0=0=0 // don't automatically add -songbackground-
;
#KEYSOUNDS:;
#ATTACKS:
;

//---------------dance-single - ----------------
#NOTEDATA:;
#CHARTNAME:;
#STEPSTYPE:dance-single;
#DESCRIPTION:;
#CHARTSTYLE:;
#DIFFICULTY:Hard;
#METER:14;
#RADARVALUES:0.627651,0.800714,0.000000,0.000000,0.044756,589.000000,589.000000,0.000000,0.000000,0.000000,0.000000,0.000000,0.000000,0.000000,0.627651,0.800714,0.000000,0.000000,0.044756,589.000000,589.000000,0.000000,0.000000,0.000000,0.000000,0.000000,0.000000,0.000000;
#CREDIT:;
#NOTES:
// measure 0
0000
0000
0000
0000
,  // measure 1
0000
0000
0000
0000
,  // measure 2
0000
0000
0000
0000
,  // measure 3
0000
0000
0000
0000
,  // measure 4
0010
0000
1000
0001
0100
0000
0010
0001
,  // measure 5
0100
0001
1000
0000
0000
0000
0000
0000
,  // measure 6
0000
0010
0001
0100
1000
0010
0100
0010
,  // measure 7
0001
0100
1000
0000
0100
0100
0100
0100
,  // measure 8
0100
0000
0010
0100
0001
0000
0100
0010
,  // measure 9
0100
0010
0001
1000
0100
0000
0000
0000
,  // measure 10
0000
0010
0001
0100
1000
0000
0100
0010
,  // measure 11
0001
0100
0001
1000
0100
0010
0001
0100
,  // measure 12
1000
0100
0010
0001
1000
0001
0100
0010
,  // measure 13
0001
0100
0001
0100
0010
0100
0001
0100
,  // measure 14
0010
0100
1000
0100
0010
0100
0001
0100
,  // measure 15
0010
0001
0100
0001
0100
0010
0001
1000
,  // measure 16
0001
0100
0010
0001
0100
0001
0100
0010
,  // measure 17
0100
1000
0100
0010
0100
0001
0010
0100
,  // measure 18
1000
0100
0010
0100
0001
0100
0010
0001
,  // measure 19
0100
0001
0100
0010
0001
1000
0001
0100
,  // measure 20
0010
0000
0001
0100
0010
0000
0100
0001
,  // measure 21
0000
0000
0001
0100
0010
0000
0001
0100
,  // measure 22
0000
0000
0001
0100
1000
0000
0010
0100
,  // measure 23
0000
0000
0001
0100
0001
0000
0010
1000
,  // measure 24
0000
0000
0001
1000
0100
0000
0001
0100
,  // measure 25
0000
0000
0100
0010
0001
0000
1000
0100
,  // measure 26
0000
0000
0001
0100
0010
0000
0100
0001
,  // measure 27
0000
0000
0001
0100
0010
0000
0100
0001
,  // measure 28
0010
0001
0100
0010
0001
0100
0001
0100
,  // measure 29
1000
0010
0001
0100
0001
0100
0010
0001
,  // measure 30
1000
0001
0100
0010
0001
0100
0001
0100
,  // measure 31
0010
0100
0001
0100
0010
0001
0100
0001
,  // measure 32
0100
0010
0001
0100
0001
0100
1000
0100
,  // measure 33
0010
0100
0001
0100
0010
0001
0100
0001
,  // measure 34
0100
0010
0001
1000
0001
0100
0010
0001
,  // measure 35
0010
0100
0001
0000
0100
0000
0010
0000
0001
0100
0010
0000
0001
0010
0100
0010
,  // measure 36
1000
0000
0010
0000
0001
0100
0100
0010
,  // measure 37
0100
0001
0010
0000
0001
0100
1000
0000
,  // measure 38
0100
0010
0001
1000
0001
0100
0010
0000
,  // measure 39
0001
0100
0000
0010
0100
1000
0000
0001
,  // measure 40
0010
0100
0010
0001
0100
0001
1000
0100
,  // measure 41
0010
0001
0100
0001
1000
0010
0001
0100
,  // measure 42
1000
0100
0010
0001
0100
0001
0100
0010
,  // measure 43
0100
0010
0001
0100
0001
0100
0010
0001
,  // measure 44
0100
0001
0100
0010
0001
0100
0001
1000
,  // measure 45
0100
0000
0010
0001
0100
0010
0001
0100
,  // measure 46
0001
0100
0001
0100
0001
0100
0001
0100
,  // measure 47
1000
0100
0010
0100
0010
0100
0001
0100
,  // measure 48
0010
0001
0100
0001
0010
0100
0001
1000
,  // measure 49
0001
0100
0010
0001
0100
0001
0100
0010
,  // measure 50
0001
0100
0001
0100
0010
0001
0100
0001
,  // measure 51
0100
0010
0001
1000
0001
0100
0010
0001
,  // measure 52
0100
0001
0010
0001
0001
0100
0001
0100
,  // measure 53
0010
0000
1000
0001
0100
0000
0010
0100
,  // measure 54
0000
0000
0100
0010
0001
0000
0100
1000
,  // measure 55
0000
0000
0001
0100
0010
0000
0001
0100
,  // measure 56
0000
0000
0100
0001
0010
0000
1000
0100
,  // measure 57
0000
0000
0001
0100
1000
0000
0010
0100
,  // measure 58
0000
0000
0001
0100
1000
0000
0010
0100
,  // measure 59
0000
0000
0001
1000
0100
0000
0010
0100
,  // measure 60
0100
0000
0010
0100
0001
0000
1000
0100
,  // measure 61
0010
0000
0001
0100
0010
0000
0100
0001
,  // measure 62
0010
0000
0001
0100
0010
0000
0001
0100
,  // measure 63
1000
0000
0001
0100
0010
0100
0001
0100
,  // measure 64
1000
0000
0100
0010
0001
1000
0001
0100
,  // measure 65
1000
0100
0001
1000
0001
0100
0100
0010
,  // measure 66
0100
0010
0100
0001
0100
0001
0100
0010
,  // measure 67
0100
0010
0001
0100
0001
0100
0010
0001
1000
0001
0100
0010
0100
0001
0100
0001
,  // measure 68
0100
0010
0100
0010
0001
0100
0001
0100
,  // measure 69
1000
0010
0010
0001
0100
0010
0001
0100
,  // measure 70
0001
0100
0010
0100
1000
0100
0010
0001
,  // measure 71
0100
0001
0100
0001
0010
0100
0010
0100
,  // measure 72
0100
1000
0100
0010
1000
0010
0100
0010
,  // measure 73
0100
0010
1000
0100
0010
0010
0100
0001
,  // measure 74
0100
0010
0001
0000
0001
0100
0010
0010
,  // measure 75
0001
0100
0001
0100
0010
1000
0010
0100
,  // measure 76
0010
0010
0100
0010
0100
0100
0001
0010
,  // measure 77
0100
0010
0001
1000
0001
0100
0010
0001
,  // measure 78
0100
0001
0100
0010
0100
1000
0100
0100
,  // measure 79
0010
0100
0010
0010
0001
1000
0001
0100
,  // measure 80
0010
0001
0100
0001
0100
0010
0100
1000
,  // measure 81
0100
0010
0001
0100
0001
0100
0010
0001
,  // measure 82
0100
0001
0100
0010
0001
1000
0001
0100
,  // measure 83
0010
0001
0100
0001
0100
0010
0001
0100
,  // measure 84
0001
0100
0010
0001
1000
0001
0100
0010
,  // measure 85
0001
0100
0000
0010
0000
0100
0000
0001
;
