#VERSION:0.83;
#TITLE:game on;
#SUBTITLE:;
#ARTIST:Little Simz & JT;
#TITLETRANSLIT:;
#SUBTITLETRANSLIT:;
#ARTISTTRANSLIT:;
#GENRE:;
#ORIGIN:;
#CREDIT:;
#BANNER:;
#BACKGROUND:;
#PREVIEWVID:;
#JACKET:;
#CDIMAGE:;
#DISCIMAGE:;
#LYRICSPATH:;
#CDTITLE:;
#MUSIC:Little Simz - Game On ft. JT (Official Visualiser).ogg;
#OFFSET:0.000000;
#SAMPLESTART:100.059883;
#SAMPLELENGTH:12.000000;
#SELECTABLE:YES;
#BPMS:0.000=125.000;
#STOPS:0.000=0.100;
#DELAYS:;
#WARPS:;
#TIMESIGNATURES:0.000=4=4;
#TICKCOUNTS:0.000=4;
#COMBOS:0.000=1;
#SPEEDS:0.000=1.000=0.000=0;
#SCROLLS:0.000=1.000;
#FAKES:;
#LABELS:0.000=Song Start;
#BGCHANGES:;
#KEYSOUNDS:;
#ATTACKS:
;

//---------------dance-single - ----------------
#NOTEDATA:;
#CHARTNAME:;
#STEPSTYPE:dance-single;
#DESCRIPTION:;
#CHARTSTYLE:;
#DIFFICULTY:Hard;
#METER:12;
#RADARVALUES:0.505101,0.578955,0.046522,0.019938,0.196059,532.000000,525.000000,7.000000,3.000000,0.000000,0.000000,0.000000,0.000000,0.000000,0.505101,0.578955,0.046522,0.019938,0.196059,532.000000,525.000000,7.000000,3.000000,0.000000,0.000000,0.000000,0.000000,0.000000;
#CREDIT:;
#NOTES:
// measure 0
0000
0000
0000
0000
,  // measure 1
0000
0000
0000
0000
,  // measure 2
0000
0000
0000
0000
,  // measure 3
0000
0000
0000
0000
,  // measure 4
0100
0000
0010
0000
0001
0000
0100
0010
0001
0000
0100
0000
1000
0000
0000
0000
,  // measure 5
0100
0000
0010
0000
0001
0000
0100
0010
0001
0000
0100
0000
1000
0000
0000
0000
,  // measure 6
0001
0000
0100
0000
0010
0000
0001
1000
0100
0000
0001
0000
0010
0000
0000
0000
,  // measure 7
0001
0000
0100
0000
0010
0000
0001
1000
0100
0000
0010
0000
0001
0000
0000
0000
,  // measure 8
0100
0000
0010
0000
0100
0001
1000
0100
0001
0000
0010
0000
0100
0000
0000
0000
,  // measure 9
0100
0010
0001
0100
0001
1000
0100
0000
,  // measure 10
0010
0000
0100
0000
0010
0000
0001
1000
0100
0000
0010
0000
0001
0000
0000
0000
,  // measure 11
0100
0000
0010
0100
0001
0000
1000
0100
0001
0000
0100
0000
0010
0000
0000
0000
,  // measure 12
0000
0000
0000
0100
0001
1000
0100
0000
,  // measure 13
0000
0010
0001
0100
0001
1000
0100
0000
,  // measure 14
0000
0010
0001
0100
0001
1000
0100
0000
,  // measure 15
0000
0000
0010
0000
0100
0001
1000
0000
0100
0000
0010
0000
0001
0000
0000
0000
,  // measure 16
0000
0000
0010
0000
0001
0000
0100
0010
0001
0000
1000
0000
0100
0000
0000
0000
,  // measure 17
0000
0000
0010
0000
0100
0001
1000
0000
0100
0000
0010
0000
0001
0000
0100
0000
,  // measure 18
0000
0000
0010
0000
0001
0000
0100
0010
0001
0000
1000
0000
0100
0000
0010
0000
,  // measure 19
0000
0000
0220
0330
,  // measure 20
0100
0010
0001
0100
0001
0100
1000
0000
,  // measure 21
0001
0000
0100
1000
0001
0000
0100
0000
,  // measure 22
0100
0010
0001
0100
0001
0100
1000
0000
,  // measure 23
0100
0000
0010
0001
1000
0000
0100
0000
,  // measure 24
0001
0000
0100
0000
0010
0000
1000
0001
0100
0000
0001
0000
0010
0000
0000
0000
,  // measure 25
0001
0000
0100
0000
0010
0000
0001
1000
0100
0000
0010
0000
0001
0000
0000
0000
,  // measure 26
0001
0000
0100
0000
0010
0000
0001
1000
0100
0000
0001
0000
0010
0000
0000
0000
,  // measure 27
0100
0010
0001
1000
0001
0100
0000
0000
,  // measure 28
1001
0000
0000
0001
0100
0000
0010
0001
,  // measure 29
0100
0010
0001
0100
0001
0100
0001
1000
,  // measure 30
0100
0010
0001
0100
0001
0100
1000
0010
,  // measure 31
0100
0000
0010
0000
0100
0000
0001
1000
0100
0000
0001
0000
0010
0000
0100
0000
,  // measure 32
1001
0000
0010
0000
0100
0000
0001
0000
1000
0000
0100
0001
0000
0000
0000
0000
,  // measure 33
0001
0000
0100
0000
0010
0000
0001
1000
0100
0000
0010
0100
0000
0000
0000
0000
,  // measure 34
0001
0000
1000
0000
0001
0000
0100
0000
0010
0000
0100
0001
0000
0000
0000
1000
,  // measure 35
0100
0000
0010
0000
0001
0000
0010
0100
0001
1000
0000
0100
0000
0000
0010
0000
,  // measure 36
0100
0000
0000
0010
0100
0001
0100
0010
,  // measure 37
1001
0000
0100
0000
0010
0000
0100
0001
0010
0000
0100
0000
1000
0010
0100
0001
,  // measure 38
1000
0000
0010
0000
0001
0000
0100
0010
0001
0000
1000
0000
0100
0000
0010
0000
,  // measure 39
0100
0000
0001
1000
0100
0000
0001
0010
0100
0000
0010
0100
0001
0000
1000
0000
,  // measure 40
0110
0000
0010
0100
0001
0000
0010
0000
0001
0000
1000
0000
0001
0000
0100
0000
,  // measure 41
0001
0100
0010
0001
0100
0001
1000
0100
,  // measure 42
0000
0100
0010
0001
0100
0001
0100
1000
,  // measure 43
0000
0000
0000
0000
0000
0000
0100
0000
0001
0000
0010
0100
0001
0000
0100
0000
,  // measure 44
0010
0001
0100
0001
0100
1000
0100
0000
,  // measure 45
0010
0000
1000
0001
0100
0000
0010
0000
,  // measure 46
0100
0010
0001
0100
0001
0100
1000
0000
,  // measure 47
0010
0000
0001
1000
0001
0000
0010
0000
,  // measure 48
0001
0000
0100
0000
0001
0000
0100
0010
0001
0000
0100
0000
1000
0000
0000
0000
,  // measure 49
0001
0000
0100
0000
0010
0000
0001
1000
0100
0000
0010
0000
0001
0000
0000
0000
,  // measure 50
0010
0000
0100
0000
0010
0000
0001
0100
1000
0000
0001
0000
0100
0000
0000
0000
,  // measure 51
0010
0000
0100
0000
0010
0000
0001
1000
0100
0000
0001
0000
0010
0000
0000
0000
,  // measure 52
0100
0000
0010
0000
0001
0000
0100
0010
0001
0000
1000
0000
0100
0000
0000
0000
,  // measure 53
0001
0000
0100
0000
0010
0000
0100
0001
0010
0000
0010
0000
0100
0000
0000
0000
,  // measure 54
0010
0000
0100
0000
0010
0000
0100
0010
0001
0000
1000
0000
0100
0000
0000
0000
,  // measure 55
0010
0000
0100
0001
0010
0000
0100
0001
1000
0000
0100
0000
0010
0000
0000
0000
,  // measure 56
0000
0000
0000
0000
0000
0000
0010
0100
0001
0000
1000
0100
0002
0000
0000
0000
,  // measure 57
0000
0000
0000
0000
0000
0000
0003
0000
0010
0001
0010
0001
0010
0001
0000
0000
,  // measure 58
0010
0001
0100
0001
0100
1000
0100
0000
,  // measure 59
0010
0000
0001
0000
0010
0000
0100
0000
0001
0000
0100
0000
1000
0100
1000
0000
,  // measure 60
0100
0000
0010
0000
0100
0001
1000
0000
0010
0000
0001
0000
0100
0000
0000
0000
,  // measure 61
0010
0000
0100
0000
0001
1000
0100
0000
0001
0000
0010
0000
0100
0000
0000
0000
,  // measure 62
0100
0010
0001
0100
0001
1000
0100
0000
,  // measure 63
0000
0000
1001
1001
,  // measure 64
0100
0010
0001
1000
0001
0100
1000
0000
,  // measure 65
0100
0000
0010
0001
1000
0000
0100
0000
,  // measure 66
0100
0010
0001
0100
0001
0100
1000
0000
,  // measure 67
0100
0000
0010
0001
0100
0000
0010
0000
,  // measure 68
0100
0000
0010
0000
0001
0000
0100
0010
0001
0000
1000
0000
0100
0000
0000
0000
,  // measure 69
0001
0000
0100
0000
0010
0000
0001
0100
1000
0000
0100
0000
0010
0000
0000
0000
,  // measure 70
0001
0000
0100
0000
0010
0000
0001
0100
1000
0000
0010
0000
0100
0000
0000
0000
,  // measure 71
0010
0000
0001
0000
0100
0000
0010
0001
1000
0000
0001
0000
0100
0000
0000
0000
,  // measure 72
0100
0010
0001
0100
0001
1000
0100
0000
,  // measure 73
0100
0000
0010
0000
0001
0000
0100
0010
0001
0000
1000
0000
0100
0000
0000
0000
,  // measure 74
0001
0000
0100
0000
0010
0000
0001
1000
0100
0000
0100
0000
0010
0000
0000
0000
,  // measure 75
0100
0000
0010
0100
0001
0000
1000
0100
0001
0000
0010
0000
0100
0000
0000
0000
;
