#TITLE:grwm;
#SUBTITLE:(get ready with me);
#ARTIST:ILLIT;
#TITLETRANSLIT:;
#SUBTITLETRANSLIT:;
#ARTISTTRANSLIT:;
#GENRE:;
#CREDIT:;
#BANNER:;
#BACKGROUND:;
#LYRICSPATH:;
#CDTITLE:;
#MUSIC:GRWM (Get Ready With Me).ogg;
#OFFSET:0.000000;
#SAMPLESTART:100.059883;
#SAMPLELENGTH:12.000000;
#SELECTABLE:YES;
#BPMS:0.000000=169.000000
;
#STOPS:0.000000=0.300000
;
#BGCHANGES:;
#KEYSOUNDS:;
#ATTACKS:;

//---------------dance-single - ----------------
#NOTES:
     dance-single:
     :
     Hard:
     13:
     0.598515,0.584293,0.000000,0.077037,0.000000,707.000000,707.000000,0.000000,13.000000,0.000000,0.000000,0.598515,0.584293,0.000000,0.077037,0.000000,707.000000,707.000000,0.000000,13.000000,0.000000,0.000000:
// measure 0
0000
0000
0000
0000
,  // measure 1
0000
0000
0000
0000
,  // measure 2
0000
0000
0000
0000
,  // measure 3
0000
0000
0000
0000
,  // measure 4
0001
0100
0001
0100
,  // measure 5
0010
0001
1000
0010
,  // measure 6
0001
0100
0001
0100
,  // measure 7
0010
0000
0000
0000
0100
0001
0100
0010
,  // measure 8
0001
0100
0010
0100
1000
0010
0100
0010
,  // measure 9
0100
0010
0100
0010
0100
0010
0001
0100
,  // measure 10
0001
0100
0010
0001
0100
0001
0100
0010
,  // measure 11
0001
1000
0001
0100
0010
0001
0100
0001
,  // measure 12
0100
0010
0001
0100
0001
0100
0010
0001
,  // measure 13
0100
0001
0100
0010
0001
0100
0001
1000
,  // measure 14
0100
0010
0100
1000
0100
0010
0100
0001
,  // measure 15
0010
0100
0001
0100
0010
0001
1000
0010
,  // measure 16
0100
0010
0010
0100
0010
0010
0100
0010
,  // measure 17
0100
1000
0010
0100
0010
0001
0010
0100
,  // measure 18
0010
0010
0001
0001
0010
0100
1000
0100
,  // measure 19
0010
0100
0010
0100
0100
0010
1000
0010
,  // measure 20
0100
0010
0100
0010
0100
0010
0001
0100
,  // measure 21
0001
0100
0010
0001
1000
0010
0100
0010
,  // measure 22
0001
0100
0001
0010
1000
0010
0100
0010
,  // measure 23
0001
0100
0001
0100
0010
0001
0100
0010
,  // measure 24
0001
1000
0001
0100
0010
0001
0100
0001
,  // measure 25
0100
0010
0100
0010
0001
0000
0000
0000
,  // measure 26
0001
1000
0001
0100
0010
0001
0010
0100
,  // measure 27
0000
0010
0100
0001
1000
0000
0001
0100
,  // measure 28
0010
0100
0001
0000
2000
0000
0000
0000
,  // measure 29
0000
0000
0000
0000
3000
0000
1000
0001
,  // measure 30
0100
0010
0001
0000
0200
0000
0000
0000
,  // measure 31
0000
0000
0000
0300
,  // measure 32
0100
0010
0100
0000
0010
0000
0001
0100
,  // measure 33
0000
0010
0001
0000
0100
0000
0010
0100
,  // measure 34
0000
0001
0100
0000
0010
0000
0010
0100
,  // measure 35
0000
0010
0001
0100
0000
0010
0001
0100
,  // measure 36
0000
0010
0000
0100
0002
0000
0000
0000
,  // measure 37
0000
0000
0003
0000
1000
0001
0100
0002
,  // measure 38
0000
0000
0000
0000
,  // measure 39
2000
0000
0000
3003
,  // measure 40
1000
0000
0100
0001
0010
0000
0001
0100
,  // measure 41
1000
0000
0000
0000
0100
0001
0100
0001
,  // measure 42
0010
0100
0010
0100
0001
0100
0010
0001
,  // measure 43
0100
0001
0100
0010
0001
0001
0100
0010
,  // measure 44
0001
1000
0001
0100
0010
0001
0010
0100
,  // measure 45
0010
0001
0100
0001
0100
0010
0100
1000
,  // measure 46
0100
0010
0001
0100
0001
0100
0010
0100
,  // measure 47
0010
1000
0010
0100
0010
0100
0100
0010
,  // measure 48
0100
0001
0100
0010
0100
0010
0100
1000
,  // measure 49
0100
0010
0001
0100
0001
0100
0010
0001
,  // measure 50
0100
0001
0100
0010
0100
1000
0010
0100
,  // measure 51
0010
0100
0010
0100
0001
0100
0010
0100
,  // measure 52
1000
0100
0010
0100
0010
0100
0001
0010
,  // measure 53
0100
1000
0100
0010
0100
0010
0100
0010
,  // measure 54
0100
1000
0100
0010
0100
0010
0100
0001
,  // measure 55
0100
0010
0001
1000
0001
0100
0010
0001
,  // measure 56
0100
0001
0100
0010
0001
0100
0001
0100
,  // measure 57
0010
1000
0001
0100
0010
0001
0100
0001
,  // measure 58
0010
0001
0100
0000
0010
0000
1000
0100
,  // measure 59
0001
0010
0100
0000
,  // measure 60
0010
0001
0100
0000
1000
0000
0001
0100
,  // measure 61
0010
0000
0001
0000
0100
0000
0010
0001
,  // measure 62
1000
0001
0200
0000
0000
0000
0000
0000
,  // measure 63
0000
0000
0000
0000
0300
0100
0001
0010
,  // measure 64
0000
0001
0100
0010
0000
0001
0000
0200
,  // measure 65
0000
0000
0000
0300
,  // measure 66
0002
0003
0200
0300
,  // measure 67
0020
0000
0030
0010
,  // measure 68
0002
0003
0200
0300
,  // measure 69
0020
0000
0000
0000
0030
0000
0010
0001
,  // measure 70
0010
0100
0000
0000
0000
0000
0100
0010
,  // measure 71
0001
0100
0010
0001
0100
0000
0001
0100
,  // measure 72
0010
0100
0001
0010
0100
0001
0000
0000
,  // measure 73
0000
0000
0000
0000
,  // measure 74
0100
0000
0010
0010
0100
0000
0001
0010
,  // measure 75
0100
0000
0000
0000
0001
1000
0100
0001
,  // measure 76
0010
0001
0100
0010
0001
0100
0001
0100
,  // measure 77
0010
0001
0100
0001
0100
0010
0001
1000
,  // measure 78
0001
0100
0010
0001
0100
0010
0100
0010
,  // measure 79
0001
0100
0001
0100
0010
0100
1000
0100
,  // measure 80
0010
0100
0010
0001
0100
0010
0100
1000
,  // measure 81
0010
0100
0001
0010
0100
0010
0001
0100
,  // measure 82
0001
0100
0010
0100
1000
0100
0010
0001
,  // measure 83
0100
0001
0100
0010
0001
0100
0001
0100
,  // measure 84
0010
0001
1000
0001
0100
0010
0001
0100
,  // measure 85
0001
0100
0010
0001
0100
0001
0100
0010
,  // measure 86
0100
1000
0100
0010
0100
0010
0100
0010
,  // measure 87
0001
0100
0001
0100
0010
0001
1000
0001
,  // measure 88
0100
0010
0001
0100
0001
0100
0010
0001
,  // measure 89
0100
0001
0100
0010
0100
1000
0100
0010
,  // measure 90
0100
0010
0001
0100
0001
0100
0010
0001
,  // measure 91
0100
0010
0001
1000
0001
0100
0010
0001
,  // measure 92
0100
0010
0001
0100
,  // measure 93
0100
0010
0100
0001
,  // measure 94
0100
0010
0001
0100
,  // measure 95
0001
0000
0100
0000
0010
0000
0001
1000
,  // measure 96
0100
0100
0010
0001
0010
0000
0100
0000
,  // measure 97
0010
0001
1000
0001
,  // measure 98
0100
0001
0100
0010
,  // measure 99
0000
0000
0000
0000
,  // measure 100
0100
0010
0001
1000
0001
0100
0010
0001
,  // measure 101
0100
0001
0100
0010
0001
0100
0001
0100
,  // measure 102
1000
0010
0100
0001
1000
0001
0010
0100
,  // measure 103
0001
0100
0001
0100
0010
0100
0010
0001
,  // measure 104
0100
0001
0100
0010
0100
0001
0100
0010
,  // measure 105
0001
0100
0010
0001
0100
0001
0100
0010
,  // measure 106
0100
1000
0100
0010
0001
0100
0001
0100
,  // measure 107
0010
0001
0100
0001
0100
0010
0100
0010
,  // measure 108
0100
1000
0100
0010
0100
0001
0100
0001
,  // measure 109
0100
0010
0001
0010
0100
0010
1000
0010
,  // measure 110
0100
0010
0001
0100
0001
0100
0001
0100
,  // measure 111
0010
0001
0100
0001
0100
0010
0100
1000
,  // measure 112
1000
0100
0010
0001
0100
0001
0100
0010
,  // measure 113
0001
0100
0001
0100
0010
0001
0100
0001
,  // measure 114
0100
0010
0001
1000
0001
0100
0010
0001
,  // measure 115
0100
0001
0100
0010
0001
0100
0001
1000
,  // measure 116
0100
0000
0000
0000
;
