#TITLE:fun dip;
#SUBTITLE:;
#ARTIST:Pitbull & Freak Nasty;
#TITLETRANSLIT:;
#SUBTITLETRANSLIT:;
#ARTISTTRANSLIT:;
#GENRE:;
#CREDIT:;
#BANNER:;
#BACKGROUND:;
#LYRICSPATH:;
#CDTITLE:;
#MUSIC:Freak Nasty x Pitbull - FUN DIP (Official Lyric Video).ogg;
#OFFSET:0.000000;
#SAMPLESTART:100.059883;
#SAMPLELENGTH:12.000000;
#SELECTABLE:YES;
#BPMS:0.000000=135.000000
;
#STOPS:0.000000=0.200000
;
#BGCHANGES:;
#KEYSOUNDS:;
#ATTACKS:;

//---------------dance-single - ----------------
#NOTES:
     dance-single:
     :
     Hard:
     13:
     0.624788,0.590921,0.420418,0.000000,0.321153,749.000000,677.000000,72.000000,0.000000,0.000000,0.000000,0.624788,0.590921,0.420418,0.000000,0.321153,749.000000,677.000000,72.000000,0.000000,0.000000,0.000000:
// measure 0
0000
0000
0000
0000
,  // measure 1
0000
0000
0000
0000
,  // measure 2
0000
0000
0000
0000
,  // measure 3
0000
0000
0000
0000
,  // measure 4
0101
0000
0000
0000
0110
0000
0000
0000
0100
0001
1000
0000
0100
0000
0000
0000
,  // measure 5
0000
0000
0001
0010
0100
0000
0000
0000
0001
0000
0100
0000
1000
0000
0000
0000
,  // measure 6
0110
0000
0000
0000
0001
0000
0000
1000
0001
0000
0010
0000
0100
0000
0000
0000
,  // measure 7
0001
0000
0010
0100
0001
0000
1000
0000
0110
0000
0001
0000
0110
0000
0001
0000
,  // measure 8
0001
0100
0010
0001
1000
0000
0010
0001
,  // measure 9
0110
0010
1001
0001
1001
0001
0100
0010
,  // measure 10
0001
1000
0001
0100
1000
0000
0100
0010
,  // measure 11
1001
0001
1001
0001
1001
0000
0100
0010
,  // measure 12
0001
1000
0001
0100
1000
0000
0010
0100
,  // measure 13
0110
0100
0110
0010
0110
0001
1000
0001
,  // measure 14
1001
0000
0010
0100
0001
0000
1000
0000
0010
0000
0000
0000
0000
0001
0100
0000
,  // measure 15
0110
0000
0010
0000
0110
0000
0010
0000
1100
0000
0001
0000
1000
0100
0001
0000
,  // measure 16
0000
0000
0100
0001
0010
0000
0000
0000
0100
0000
0001
0000
1000
0000
0100
0000
,  // measure 17
0000
0000
0010
0001
0100
0000
0100
0010
0001
0000
0100
0000
1000
0000
0001
0100
,  // measure 18
0010
0000
0001
0100
1000
0000
0100
0000
0010
0000
1000
0001
0100
0000
0010
0100
,  // measure 19
0001
0000
1000
0100
0001
0000
1000
0000
0100
0001
0000
0010
0100
0000
0010
0000
,  // measure 20
0101
0110
1001
0110
,  // measure 21
0110
0000
0101
0000
0110
0000
1001
0001
,  // measure 22
1000
0010
0001
0100
0001
0100
1000
0001
,  // measure 23
0100
0010
0001
1000
0001
0100
1000
0000
,  // measure 24
0110
0000
0000
0100
0001
0100
0001
1000
0001
0010
0100
0001
,  // measure 25
0000
1000
0000
0100
0001
1000
0001
0010
0100
0010
0001
0100
,  // measure 26
0000
1000
0001
0100
0010
0001
1000
0001
0100
0001
1000
0100
,  // measure 27
0000
0010
0100
0000
0100
0000
0010
0000
0000
0001
1000
0000
0100
0001
0010
0000
,  // measure 28
1001
0000
0010
0000
0100
0000
0001
0000
0100
0000
0010
0000
1000
0100
0001
0000
,  // measure 29
1001
0000
0010
0000
0001
1000
0100
0000
0010
0000
0001
1000
0100
0001
0010
0000
,  // measure 30
0010
0000
0001
0000
0010
0000
0001
0000
0100
0000
0010
0000
1000
0100
0001
0000
,  // measure 31
0001
0000
0100
0000
0010
0001
1000
0000
0010
0000
0001
0000
0100
0000
0010
0000
,  // measure 32
0001
0010
0100
0001
1000
0000
0010
0100
,  // measure 33
0110
0010
0110
0100
0110
0000
1000
0001
,  // measure 34
0010
0001
0100
0010
0001
0100
0010
0100
,  // measure 35
0110
0010
0110
0010
1001
0001
0100
0010
,  // measure 36
1001
0010
0001
0100
1000
0000
0001
0100
,  // measure 37
0101
0001
0101
0100
0110
0001
1000
0001
,  // measure 38
1001
0000
0100
0001
1000
0000
0100
0000
0011
0000
0000
0000
0000
0000
1000
0100
,  // measure 39
0001
0010
0001
1000
0001
0100
1000
0000
,  // measure 40
0100
0001
0000
1000
0100
0000
0010
0001
0100
0010
0000
0100
0000
0000
0001
0000
,  // measure 41
0000
0000
1000
0100
0001
0000
1000
0000
0000
0000
0100
0000
0001
0000
0000
0000
,  // measure 42
0000
0000
0100
0001
1000
0000
0100
0001
0010
0000
0100
0000
0010
0000
0100
0000
,  // measure 43
1000
0000
0100
0001
0010
0000
0100
0001
0000
0100
1000
0000
0100
0000
0010
0000
,  // measure 44
1001
0000
0001
0000
1000
0000
0100
0001
0010
0000
0100
1000
0000
0000
0100
0000
,  // measure 45
0100
0000
0010
0000
0001
0100
1000
0000
0010
0000
0100
0001
0000
0000
1000
0000
,  // measure 46
0000
0000
0100
0001
0010
0000
0001
0100
0000
0010
0100
0000
0001
0000
0000
0000
,  // measure 47
0001
0000
0100
0000
0010
0000
0001
0100
1000
0000
0010
0000
0100
0000
0001
1000
,  // measure 48
0100
0000
0000
0000
0010
0000
0100
0000
0001
0000
1000
0100
0000
0000
0100
0000
,  // measure 49
0010
0000
0001
0010
0100
0000
0000
0001
0000
0010
0100
0000
0010
0000
0001
0000
,  // measure 50
0010
0000
0100
0000
0010
0000
0001
0100
1000
0000
0100
0001
0000
1000
0000
0000
,  // measure 51
0010
0000
1000
0001
0100
0010
0100
0000
0010
0100
0001
0000
1000
0000
0100
0000
,  // measure 52
1001
0000
0010
0100
0001
0000
0100
0000
1000
0000
0010
0100
0000
0000
0010
0000
,  // measure 53
0100
0000
0100
0010
0001
1000
0001
0100
1000
0000
0001
0000
1000
0000
0000
0000
,  // measure 54
0100
0000
0001
0000
1000
0000
0000
0100
0010
0000
0001
0000
1000
0000
0000
0000
,  // measure 55
0100
0010
0001
1000
0001
0100
1000
0100
,  // measure 56
0001
0010
0001
0100
1000
0000
0100
0010
,  // measure 57
1001
0001
1001
0001
1001
0010
0100
0010
,  // measure 58
0001
1000
0001
0100
1000
0000
0100
0010
,  // measure 59
1001
0001
1001
1000
1001
0001
0100
0010
,  // measure 60
0001
0100
0010
0001
1000
0000
0100
0010
,  // measure 61
1001
0001
1001
1000
1001
0010
0001
0100
,  // measure 62
0010
0000
1000
0100
0001
0000
0100
0000
0010
0000
0000
0000
0000
0010
0100
0001
,  // measure 63
0010
0100
0001
0010
0001
0100
1000
0000
,  // measure 64
1001
0000
0100
0001
1000
0000
0001
0000
0100
0000
0000
0000
0010
0000
0001
0100
,  // measure 65
1000
0000
0100
0000
0001
0000
0010
0100
0000
0001
0000
0000
1000
0000
0100
0001
,  // measure 66
0010
0000
0100
0000
0001
0000
1000
0000
0100
0000
0001
0000
0010
0000
0100
0001
,  // measure 67
0010
0000
0010
0000
0001
0000
0100
0000
1000
0000
0100
0000
0010
0000
0100
0001
,  // measure 68
1000
0010
0100
0000
0001
0000
1000
0000
0100
0000
0000
0000
0010
0000
0100
0001
,  // measure 69
0010
0000
1000
0000
0100
0000
0010
0100
0000
0001
0000
0000
1000
0000
0100
0001
,  // measure 70
0010
0000
0010
0000
0001
0000
0100
0000
1000
0000
0010
0000
0100
0000
0001
1000
,  // measure 71
0110
0100
0101
0010
0110
1000
1100
0001
,  // measure 72
0100
0100
0001
1000
0001
0010
0001
0100
,  // measure 73
0110
0100
0101
0010
1001
0001
0100
0010
,  // measure 74
0001
1000
0001
0100
1000
0000
0100
0010
,  // measure 75
1001
0001
0101
1000
1001
0001
0100
0010
,  // measure 76
1001
1000
0001
0100
1000
0000
0100
0010
,  // measure 77
0101
1000
1001
0010
0110
0010
0100
0001
,  // measure 78
1001
0000
0010
0100
0001
0000
1000
0000
0100
0000
0000
0000
0000
0100
0001
0010
,  // measure 79
0100
0000
0010
0000
0101
0000
0010
0000
0101
0000
0010
0000
1001
0000
0100
0001
,  // measure 80
0010
0000
0001
0100
0001
0100
1000
0000
,  // measure 81
0000
0000
0100
0001
0010
0000
0000
0000
0001
0000
0100
0000
1000
0000
0001
0000
,  // measure 82
0100
0000
0000
0000
0001
0100
0000
1000
,  // measure 83
0100
0000
0010
0100
0001
0000
1000
0000
0100
0000
0001
0000
0010
0000
0000
0000
,  // measure 84
0001
0000
0000
0000
1000
0100
0000
0010
,  // measure 85
0001
0000
1000
0100
0001
0000
0010
0000
0100
0000
0001
0000
1000
0000
0001
0000
,  // measure 86
0010
0000
0000
0000
1000
0000
0000
0100
0001
0000
0100
0000
0010
0000
0000
0000
,  // measure 87
0000
0000
0001
0100
0010
0000
0100
0000
0001
0000
0100
0000
1000
0000
0000
0000
,  // measure 88
1001
0000
0000
0000
;
