#TITLE:freeze;
#SUBTITLE:;
#ARTIST:T Pain & Chris Brown;
#TITLETRANSLIT:;
#SUBTITLETRANSLIT:;
#ARTISTTRANSLIT:;
#GENRE:;
#CREDIT:;
#BANNER:;
#BACKGROUND:;
#LYRICSPATH:;
#CDTITLE:;
#MUSIC:T-Pain - Freeze (Official HD Video) ft. Chris Brown.ogg;
#OFFSET:0.000000;
#SAMPLESTART:100.059883;
#SAMPLELENGTH:12.000000;
#SELECTABLE:YES;
#BPMS:0.000000=120.000000
;
#STOPS:0.000000=0.400000,
120.000000=4.000000,
224.000000=4.000000,
328.000000=4.000000
;
#BGCHANGES:0.000=videoplayback.mp4=1.000=0=0=1=====,
99999=-nosongbg-=1.000=0=0=0 // don't automatically add -songbackground-
;
#KEYSOUNDS:;
#ATTACKS:;

//---------------dance-single - ----------------
#NOTES:
     dance-single:
     :
     Hard:
     9:
     0.337844,0.438598,0.136964,0.132398,0.075330,518.000000,488.000000,30.000000,29.000000,0.000000,0.000000,0.337844,0.438598,0.136964,0.132398,0.075330,518.000000,488.000000,30.000000,29.000000,0.000000,0.000000:
// measure 0
0000
0000
0000
0000
,  // measure 1
0000
0000
0000
0000
,  // measure 2
1001
0000
0000
0000
,  // measure 3
0000
0000
2002
0000
,  // measure 4
0000
0000
0000
0000
,  // measure 5
0000
0000
0000
3003
,  // measure 6
1001
0000
0000
0000
,  // measure 7
0000
0000
0000
0000
,  // measure 8
0010
0001
1000
0001
0100
0000
0100
0010
,  // measure 9
0001
1000
0001
0100
1000
0000
0100
0010
,  // measure 10
0001
1000
0001
0100
1000
0010
0001
0100
,  // measure 11
1000
0010
0001
0100
0010
0000
1000
0001
,  // measure 12
0100
0000
0000
0010
0002
0000
0000
0000
,  // measure 13
0000
0000
0000
0000
0003
0000
0100
0010
0100
0000
0010
0000
0100
0000
0000
0001
,  // measure 14
0020
0000
0000
0000
0000
0000
0030
0100
,  // measure 15
0100
0000
0000
0001
1001
0000
0000
0000
,  // measure 16
0001
1000
0001
0100
0010
0100
0001
0010
,  // measure 17
0100
0001
0100
0010
0001
1000
0001
0100
,  // measure 18
1000
1000
1000
1000
1000
1000
1000
1000
,  // measure 19
1000
0000
0100
0010
0100
0010
0110
0001
,  // measure 20
1000
0000
0000
0010
0220
0000
0000
0000
,  // measure 21
0000
0000
0000
0000
0330
0000
1000
0001
0100
0000
0010
0000
0100
0000
0000
0001
,  // measure 22
0020
0000
0000
0000
0000
0000
0030
0100
,  // measure 23
0002
0000
0003
0100
1001
0010
0100
0001
,  // measure 24
0010
0100
0001
0000
0100
0100
0001
0010
,  // measure 25
0100
0000
0010
0000
1000
0001
0100
0010
,  // measure 26
0001
0100
1000
0000
0100
0001
0100
0010
,  // measure 27
0001
0000
0000
0000
1000
0000
0000
0000
0100
0000
0000
0010
0100
0001
1000
0001
,  // measure 28
0020
0000
0000
0000
,  // measure 29
0000
0000
0000
0030
,  // measure 30
2002
0000
0000
0000
,  // measure 31
0000
0000
0000
0000
,  // measure 32
0000
0000
0000
0000
,  // measure 33
0000
0000
0000
3003
,  // measure 34
0100
0010
0001
0100
0001
1000
0100
0010
,  // measure 35
0001
0100
0010
0000
0100
0000
0001
0000
,  // measure 36
0001
0100
0001
0100
1000
0000
0100
0010
,  // measure 37
0001
0000
1000
0000
0001
0000
0100
0000
1000
0000
0000
0000
0100
0000
0001
1000
,  // measure 38
0100
0000
0000
0100
0020
0000
0000
0000
,  // measure 39
0000
0000
0030
0100
0001
0010
0100
0010
,  // measure 40
2000
0000
0000
0000
0000
0000
3000
0100
,  // measure 41
0000
0000
0000
0000
0000
0000
0010
0010
0000
0000
0000
0000
0000
0000
0010
0000
,  // measure 42
0001
1000
0001
0100
1000
0000
0001
0100
,  // measure 43
0010
0001
1000
0001
0100
0010
1000
0100
,  // measure 44
0001
0010
1000
0001
0100
0000
0000
0010
,  // measure 45
0000
0010
0001
0100
0001
1000
0100
0010
,  // measure 46
0200
0000
0000
0020
0000
0000
0000
0000
,  // measure 47
0000
0000
0000
0000
0000
0000
0330
0000
0001
0000
0100
0000
1000
0000
0000
0010
,  // measure 48
0200
0000
0000
0000
0000
0000
0300
0100
,  // measure 49
0002
0000
0000
0000
0003
0001
0100
1000
,  // measure 50
0100
0010
0100
0000
0010
0010
0001
0100
,  // measure 51
1000
0000
0001
0000
0100
0010
0001
0100
,  // measure 52
1000
0010
0100
0000
0001
0100
0001
0100
,  // measure 53
1000
0000
0000
0000
0001
0000
0000
0000
0010
0000
0000
0100
1000
0001
0100
0001
,  // measure 54
0010
0001
0100
1000
0001
0000
0010
0000
,  // measure 55
1001
0010
0100
0001
,  // measure 56
2002
0000
0000
0000
,  // measure 57
0000
0000
0000
0000
,  // measure 58
0000
0000
0000
0000
,  // measure 59
0000
0000
0000
3003
,  // measure 60
0100
0010
0001
1000
0001
0100
1000
0010
,  // measure 61
0001
0100
0010
0001
1000
0001
0100
0010
,  // measure 62
0001
1000
0001
0100
1000
0000
0010
0000
,  // measure 63
0001
1000
0001
0100
0010
0000
0101
0010
,  // measure 64
1001
0110
0110
0101
,  // measure 65
0110
0000
0000
0000
0110
0000
0001
0000
0100
0000
0010
0000
0001
0000
0000
0100
,  // measure 66
2000
0000
0000
0000
0000
0000
3000
0010
,  // measure 67
0100
0001
0000
0000
0000
0000
0000
0000
,  // measure 68
0100
0001
1000
0000
0100
0001
0010
0010
,  // measure 69
0001
1000
0100
0000
0001
0100
0010
0001
,  // measure 70
1000
0001
0100
0001
0100
0001
0000
1000
,  // measure 71
0010
0001
0100
0000
0010
0100
0001
0010
,  // measure 72
1001
0110
0101
0110
,  // measure 73
1001
0000
0000
0000
1001
0000
0001
0000
0100
0000
0010
0000
0001
0000
0000
0100
,  // measure 74
2000
0000
0000
0000
0000
0000
0000
0000
0000
0000
0000
0000
3000
0000
0000
0100
,  // measure 75
0001
0000
0000
0010
0100
0000
0010
0001
1000
0000
0010
0000
0100
0000
0001
0000
,  // measure 76
1000
0100
0010
0000
0001
0100
0001
0100
,  // measure 77
1000
0000
0100
0000
0010
0100
0001
1000
,  // measure 78
0001
0100
1000
0000
0001
1000
0001
0100
,  // measure 79
0010
0000
0000
0000
0001
0000
0000
0000
0100
0000
0000
0010
0001
1000
0001
0100
,  // measure 80
1000
0001
1000
0001
0100
0000
0010
0001
,  // measure 81
0200
0000
0000
0300
,  // measure 82
2002
0000
0000
0000
,  // measure 83
3003
0000
0000
0000
0000
0000
0100
0001
0010
0100
0001
0000
0010
0000
0000
0000
,  // measure 84
0000
0000
0000
0000
0000
0000
0001
0100
1000
0000
0001
0000
0100
0000
0000
0000
,  // measure 85
0000
0000
0001
0100
1000
0000
0100
0000
0000
0001
0010
0000
0001
0000
1001
0000
,  // measure 86
1010
0010
0001
0100
0001
1000
0100
0000
,  // measure 87
0010
0001
0100
0010
1001
0100
1000
0001
,  // measure 88
0100
0010
0001
1000
0001
0100
1000
0000
,  // measure 89
0010
0000
0100
0000
0001
0000
0010
0001
0100
0000
0010
0000
0001
0000
1000
0000
,  // measure 90
0100
0000
0100
0000
0010
0000
0001
0100
1000
0000
0100
0000
0010
0000
0000
0000
,  // measure 91
0100
0000
0010
0000
1000
0100
0001
0100
0001
0000
0010
0000
0001
0000
1000
0000
,  // measure 92
0100
0010
0001
0100
0001
1000
0100
0000
,  // measure 93
1000
0001
0100
0010
0101
0000
2002
0000
,  // measure 94
0000
0000
0000
0000
3003
1000
0100
0001
,  // measure 95
0100
0010
0001
0000
0100
0010
0001
0100
,  // measure 96
1000
0000
0001
0000
0100
0010
0001
0010
,  // measure 97
1000
0000
0010
0000
0001
1000
0001
0100
,  // measure 98
1000
0000
0000
0000
0100
0000
0000
0000
0100
0000
0000
0010
0001
1000
0001
0100
,  // measure 99
2000
0000
0000
0000
,  // measure 100
0000
0000
0000
3000
,  // measure 101
2002
3003
0000
0000
0000
0000
0000
0000
;
