#TITLE:freaky;
#SUBTITLE:;
#ARTIST:Sim0ne;
#TITLETRANSLIT:;
#SUBTITLETRANSLIT:;
#ARTISTTRANSLIT:;
#GENRE:;
#CREDIT:;
#BANNER:;
#BACKGROUND:;
#LYRICSPATH:;
#CDTITLE:;
#MUSIC:freaky [M3dQnzx27Vc].ogg;
#OFFSET:0.000000;
#SAMPLESTART:100.059883;
#SAMPLELENGTH:12.000000;
#SELECTABLE:YES;
#BPMS:0.000000=156.000000
;
#STOPS:0.000000=0.200000
;
#BGCHANGES:;
#KEYSOUNDS:;
#ATTACKS:;

//---------------dance-single - ----------------
#NOTES:
     dance-single:
     :
     Hard:
     14:
     0.647172,0.939491,0.046356,0.004214,0.033713,1075.000000,1064.000000,11.000000,1.000000,0.000000,0.000000,0.647172,0.939491,0.046356,0.004214,0.033713,1075.000000,1064.000000,11.000000,1.000000,0.000000,0.000000:
// measure 0
0000
0000
0000
0000
,  // measure 1
0000
0000
0000
0000
,  // measure 2
0000
0000
0000
0000
,  // measure 3
0000
0000
0000
0000
,  // measure 4
0000
0000
0000
0000
,  // measure 5
0000
0000
0000
0000
,  // measure 6
0000
0000
0000
0000
,  // measure 7
0000
0000
0000
0000
0000
0001
0100
1000
,  // measure 8
0001
0100
0010
0001
0100
0001
0010
0010
,  // measure 9
0100
0001
0100
0001
0100
0001
0100
0001
,  // measure 10
0100
0010
0001
1000
0001
0100
0010
0001
,  // measure 11
1000
0001
0100
0010
0001
1000
0001
0100
,  // measure 12
1000
0000
1000
0000
1000
0000
0000
0100
,  // measure 13
0001
0100
0010
0001
1000
0001
0100
0010
,  // measure 14
0001
0001
0001
0000
,  // measure 15
0001
1000
0001
0100
1000
0000
0000
0100
,  // measure 16
0001
0010
1000
0100
1000
0001
1000
0001
,  // measure 17
1000
0001
0100
0010
0001
1000
0001
1000
,  // measure 18
0001
0100
0010
0001
0100
0001
0100
0001
,  // measure 19
0100
1000
0100
0010
0010
0100
0001
0100
,  // measure 20
0010
0010
0001
0100
0001
0100
0010
0001
,  // measure 21
1000
0001
0100
0010
0001
0100
0001
0100
,  // measure 22
0010
0001
1000
0001
0100
0010
0001
0100
,  // measure 23
0001
0100
0010
0001
1000
0001
0100
0000
,  // measure 24
0100
0010
0001
1000
0001
0100
0001
0000
,  // measure 25
0100
0010
0001
1000
0001
0100
1000
0000
,  // measure 26
0100
0100
0001
0100
0001
0100
1000
0000
,  // measure 27
0100
0001
0100
0010
0001
0100
0100
0000
,  // measure 28
0100
0010
0001
1000
0001
0100
0010
0000
,  // measure 29
0100
0010
0001
0100
0001
0100
1000
0000
,  // measure 30
0010
0001
0100
0001
0100
0010
0001
0100
0001
0100
0010
0001
1000
0001
0100
0010
,  // measure 31
0100
0001
0100
0000
0010
0001
0100
0000
0001
0010
0100
0000
1000
0001
0100
0000
,  // measure 32
0100
0001
0100
0010
0001
1000
0001
0100
,  // measure 33
0010
0001
1000
0001
0100
0010
0001
0100
,  // measure 34
0001
0100
0001
0100
0001
0100
0010
0001
,  // measure 35
0100
0001
0100
0010
0001
0100
1000
0100
,  // measure 36
0010
0100
0010
0100
0010
0100
0010
0100
,  // measure 37
0010
0100
0010
0100
1000
0100
0010
0100
,  // measure 38
0100
0010
0100
1000
0010
0100
0010
0001
,  // measure 39
0100
0001
0100
0010
0001
1000
0001
0100
,  // measure 40
0010
0001
0100
0001
0100
0010
0001
1000
,  // measure 41
0001
0100
0010
0001
0100
0001
0100
0010
,  // measure 42
0001
0100
0001
0100
0010
0001
1000
0001
,  // measure 43
0100
0010
0001
0100
0001
0100
0010
0001
,  // measure 44
0100
0001
0100
0010
0001
1000
0001
0100
,  // measure 45
0010
0001
0100
0001
0100
0010
0001
0100
,  // measure 46
0001
0100
0010
0001
0100
0001
0100
1000
,  // measure 47
0110
0010
0110
0010
0110
0010
0110
0010
,  // measure 48
0110
0001
0100
0010
0001
0100
0001
0100
,  // measure 49
1000
0001
0100
0001
0100
1000
0100
0010
,  // measure 50
0100
0010
0010
0010
0010
0010
0010
0010
,  // measure 51
0010
0010
0010
0010
0010
0010
0010
0001
,  // measure 52
0100
0010
0001
0100
0001
0100
0010
0001
,  // measure 53
0100
0001
0100
0010
0001
0100
0001
0100
,  // measure 54
0010
0001
1000
0001
0100
0010
0001
0100
,  // measure 55
0001
0100
0010
0001
0100
0001
0100
0010
,  // measure 56
1001
0100
0010
0100
1000
0010
0100
0010
,  // measure 57
0010
0100
0010
0010
0100
0001
0100
0010
,  // measure 58
0001
0100
0001
0100
0010
0001
0100
0001
,  // measure 59
0100
0010
0001
1000
0001
0100
0010
0001
,  // measure 60
1000
0001
0100
0010
0001
0100
0001
0100
,  // measure 61
0010
0001
1000
0001
0100
0010
0001
0100
,  // measure 62
0001
0100
1000
0001
0100
0010
0001
0100
,  // measure 63
0001
0100
0010
0001
1000
0001
0100
0010
,  // measure 64
0001
1000
0001
0100
0001
1000
0100
0010
,  // measure 65
0001
0100
0010
0001
1000
0001
0100
0010
,  // measure 66
0001
0100
0001
0100
0010
0001
1000
0001
,  // measure 67
0100
0010
0001
0100
0001
0100
1000
0001
,  // measure 68
0100
0100
0100
0000
,  // measure 69
0001
0100
0001
0100
1000
0010
0100
0001
,  // measure 70
1000
1000
1000
0000
,  // measure 71
0001
0100
0001
0100
1000
0000
0000
0010
,  // measure 72
0001
0100
0010
0001
0100
0001
0100
1000
,  // measure 73
0100
0100
0100
0100
0100
0100
0100
0100
,  // measure 74
0100
1000
0010
0100
0010
0001
0100
0001
,  // measure 75
0100
0010
0001
0100
0001
0100
0001
0100
,  // measure 76
1000
1000
1000
0000
,  // measure 77
0001
0100
0001
0100
0010
0001
1000
0001
,  // measure 78
0100
0100
0100
0000
,  // measure 79
0001
0100
0001
1000
0100
0000
0000
0001
,  // measure 80
0100
0010
0001
1000
0001
0100
1000
0100
,  // measure 81
0100
0100
0100
0100
0100
0100
0100
0100
,  // measure 82
0010
0100
0010
0100
0010
0100
0100
1000
,  // measure 83
0100
0010
0100
0010
0100
0010
0100
0010
,  // measure 84
0100
0010
0100
0010
0100
0010
0100
0010
,  // measure 85
0100
0010
0100
0100
0010
0100
0010
0100
,  // measure 86
0001
0100
0010
0001
1000
0001
0100
0010
,  // measure 87
0001
0100
0001
0100
0010
0001
0100
0001
,  // measure 88
0100
0010
0001
1000
0001
0100
0010
0001
,  // measure 89
0100
0001
0100
0010
0001
0100
1000
0010
,  // measure 90
0100
0010
0100
0010
0100
0010
0100
0010
,  // measure 91
0100
0010
0100
0010
0100
0010
0010
0100
,  // measure 92
0010
0010
0010
0010
0010
0010
0010
0001
,  // measure 93
1000
0001
0100
0001
0100
0010
0010
0001
,  // measure 94
0100
0001
0100
0010
0001
1000
0001
0100
,  // measure 95
0001
0100
0010
0001
0100
0000
0000
0000
,  // measure 96
0001
1000
0001
0100
0010
0000
0000
0000
,  // measure 97
0001
0100
0010
1000
0001
0000
0000
0000
,  // measure 98
0001
1000
0001
0100
0010
0000
0000
0000
,  // measure 99
0001
0100
0001
0100
1000
0000
0000
0000
,  // measure 100
0001
1000
0001
0100
1000
0000
0000
0000
,  // measure 101
0001
1000
0001
0100
1000
0000
0000
0000
,  // measure 102
0001
0100
0010
0001
1000
0001
0100
0010
,  // measure 103
0001
0100
0010
0000
0001
0100
1000
0000
0001
0100
0010
0000
0100
0001
0010
0000
,  // measure 104
0100
0010
0001
0100
1000
0100
0010
0100
,  // measure 105
0001
0100
0010
0001
1000
0001
0100
0010
,  // measure 106
0001
0100
0001
0100
0010
0001
1000
0001
,  // measure 107
0100
0001
0100
0010
0001
0100
0001
0100
,  // measure 108
0010
0001
0100
0001
0100
0010
0001
1000
,  // measure 109
0001
0100
0010
0001
0100
0001
0100
0010
,  // measure 110
0001
1000
0001
0100
0010
0001
1000
0001
,  // measure 111
0100
0010
0001
1000
0001
0100
0010
0010
,  // measure 112
0010
0100
0100
0100
0010
0010
0010
0100
,  // measure 113
0100
0100
0010
0010
0010
0100
0100
0100
,  // measure 114
0010
0010
0010
0100
0100
0100
0010
0100
,  // measure 115
0010
0100
0010
0001
0100
0001
0100
0010
,  // measure 116
0001
0100
0001
0100
0010
0001
1000
0001
,  // measure 117
0100
0010
0001
0100
0001
0100
0010
0001
,  // measure 118
1000
0001
0100
0010
1000
0001
0100
0010
,  // measure 119
0110
0010
0110
0010
0110
0010
0110
0010
,  // measure 120
0110
0010
0100
0001
0100
0001
0100
0010
,  // measure 121
0001
1000
0001
1000
0001
1000
0001
0100
,  // measure 122
0010
0001
0100
0001
0100
0010
0001
0100
,  // measure 123
0001
0100
0010
0001
0100
0001
0100
1000
,  // measure 124
0010
0100
0010
0100
0010
0100
0010
0100
,  // measure 125
0010
0100
0010
0010
0100
0100
0010
0100
,  // measure 126
0001
0100
0001
0100
0001
0100
0001
0100
,  // measure 127
0001
0010
0100
0010
0001
0100
0001
1000
,  // measure 128
0100
0010
0001
0100
0010
0001
0100
0001
,  // measure 129
0100
0010
0001
0100
0001
0100
0010
0001
,  // measure 130
0100
0001
0100
0010
0001
0100
1000
0100
,  // measure 131
0010
0100
0010
0100
0100
1000
0100
0100
,  // measure 132
0010
0100
0010
0100
0001
0100
0010
0001
,  // measure 133
0100
0001
0100
0010
0001
0100
0001
0100
,  // measure 134
0010
0001
1000
0001
0100
0010
0001
0100
,  // measure 135
0001
0100
0010
0001
1000
0001
0100
0010
,  // measure 136
0001
1000
0001
0100
0010
0000
0000
0000
,  // measure 137
0001
1000
0001
0100
1000
0000
0000
0000
,  // measure 138
0001
0100
0001
0100
0010
0000
0000
0000
,  // measure 139
0001
1000
0001
0100
0010
0000
0000
0000
,  // measure 140
0001
1000
0001
0100
0010
0000
0000
0000
,  // measure 141
0001
0100
0001
0100
1000
0000
0000
0000
,  // measure 142
0001
1000
0001
0100
1000
0000
0000
0000
,  // measure 143
0010
0001
1000
0001
0100
0000
0000
0000
,  // measure 144
0010
0001
1000
0001
0100
0000
1000
0000
,  // measure 145
0001
1000
0001
0100
1000
0000
1000
0001
,  // measure 146
0100
0010
0001
0100
1000
0000
0000
0000
,  // measure 147
0001
1000
0001
0100
1000
0000
0000
0000
,  // measure 148
0100
0010
0100
1000
0001
0000
0000
0000
,  // measure 149
0010
0001
0100
0010
0010
0000
0000
0000
,  // measure 150
0001
0100
0001
0100
1000
0000
0000
0000
,  // measure 151
0010
0010
0001
1000
0001
0000
0200
0000
,  // measure 152
0000
0000
0000
0000
,  // measure 153
0000
0000
0000
0300
;
