#VERSION:0.83;
#TITLE:freaked out;
#SUBTITLE:;
#ARTIST:Fat Pap, & ProdShushy;
#TITLETRANSLIT:;
#SUBTITLETRANSLIT:;
#ARTISTTRANSLIT:;
#GENRE:;
#ORIGIN:;
#CREDIT:;
#BANNER:;
#BACKGROUND:;
#PREVIEWVID:;
#JACKET:;
#CDIMAGE:;
#DISCIMAGE:;
#LYRICSPATH:;
#CDTITLE:;
#MUSIC:Fat Papi, prodshushy - FREAKED OUT.ogg;
#OFFSET:0.000000;
#SAMPLESTART:100.059883;
#SAMPLELENGTH:12.000000;
#SELECTABLE:YES;
#BPMS:0.000=85.000,
64.000=43.000,
72.125=85.000,
136.000=42.500,
144.000=42.000,
152.000=85.000;
#STOPS:0.000=0.100;
#DELAYS:;
#WARPS:;
#TIMESIGNATURES:0.000=4=4;
#TICKCOUNTS:0.000=4;
#COMBOS:0.000=1;
#SPEEDS:0.000=1.000=0.000=0;
#SCROLLS:0.000=1.000;
#FAKES:;
#LABELS:0.000=Song Start;
#BGCHANGES:;
#KEYSOUNDS:;
#ATTACKS:
;

//---------------dance-single - ----------------
#NOTEDATA:;
#CHARTNAME:;
#STEPSTYPE:dance-single;
#DESCRIPTION:;
#CHARTSTYLE:;
#DIFFICULTY:Hard;
#METER:12;
#RADARVALUES:0.463104,0.564459,0.025277,0.006319,0.568724,513.000000,509.000000,4.000000,1.000000,0.000000,0.000000,0.000000,0.000000,0.000000,0.463104,0.564459,0.025277,0.006319,0.568724,513.000000,509.000000,4.000000,1.000000,0.000000,0.000000,0.000000,0.000000,0.000000;
#CREDIT:;
#NOTES:
// measure 0
0000
0000
0000
0000
,  // measure 1
0000
0000
0000
0000
,  // measure 2
0000
0000
0000
0000
,  // measure 3
0000
0000
0000
0000
0000
0000
0000
0000
0000
0000
0000
0000
0000
0000
1000
0100
,  // measure 4
0001
0010
0100
0001
0010
0000
0001
1000
0100
0000
0001
0010
0100
0000
0010
0100
,  // measure 5
0010
0001
1000
0001
0100
0000
0010
0100
0001
0000
0001
1000
0100
0000
0001
0100
,  // measure 6
0010
0001
0100
0010
0001
0100
0001
0100
1000
0000
0010
0000
0100
0001
0100
0001
,  // measure 7
1000
0010
0100
0010
0001
0100
0001
1000
0100
0000
0010
0000
0001
0000
0010
0200
,  // measure 8
0000
0000
0000
0300
0000
0000
0100
0001
0010
0000
0100
0001
1000
0001
0010
0100
,  // measure 9
0001
0000
0100
0010
0100
0001
0010
0100
1000
0000
0010
0000
0100
0001
1000
0100
,  // measure 10
0001
0000
0010
0001
0010
0100
0001
0100
1000
0000
0010
0000
0100
0001
0100
0001
,  // measure 11
1000
0000
0100
0010
0001
0100
0001
0100
1000
0000
0100
0010
0001
0100
0001
0100
,  // measure 12
1000
0000
0000
0010
0100
0000
0100
0010
0001
0100
0001
0100
1000
0000
0000
0000
,  // measure 13
1001
0000
0000
0010
0100
0000
0000
0010
0001
0100
0001
0100
1000
0000
0000
0000
,  // measure 14
0100
0000
0000
0010
0100
0000
0100
0010
0001
0100
0001
0100
1000
0000
0000
0000
,  // measure 15
0010
0000
0000
0001
0100
0000
0100
0010
0001
0100
0001
0100
1000
0100
0010
0000
,  // measure 16
0001
0000
0010
0000
0100
0001
1000
0001
0010
0000
0100
0000
0000
0000
0000
0000
0010
0000
0100
0000
0010
0100
0001
1000
0001
0000
0010
0000
0000
0000
0000
0000
,  // measure 17
0100
0000
0010
0000
0001
0100
0001
0100
1000
0000
0010
0000
0000
0000
0000
0000
0100
0000
0010
0000
1000
0001
0100
0010
0100
0000
0010
0000
0001
0100
0001
0000
,  // measure 18
1000
0010
0100
0001
0010
0000
0100
0001
0100
0000
1000
0000
0100
0000
0000
0000
,  // measure 19
0100
0001
0100
0001
0010
0000
0100
0010
0100
0000
0100
0000
0010
0000
0000
0000
,  // measure 20
0100
0000
0010
0100
0001
0000
0100
0010
0100
0000
0010
0000
0001
0000
0000
0000
,  // measure 21
0010
0100
0001
0100
1000
0000
0010
0001
0100
0000
0010
0000
0001
0000
0101
0000
,  // measure 22
0110
0000
0000
0000
0100
0010
0100
0000
0110
0000
0100
0001
1000
0010
0100
0001
,  // measure 23
0000
0000
0000
0010
0001
1000
0100
0000
0010
0000
0001
0100
0001
1000
0100
0001
,  // measure 24
0010
0000
0100
0001
1000
0100
0010
0000
0010
0000
0100
0010
0001
1000
0001
0100
,  // measure 25
0010
0100
0001
1000
0001
0010
0001
0010
0100
0001
0100
0010
0001
0100
0001
1000
,  // measure 26
0100
0000
0010
0000
0100
0000
0001
0000
0100
0010
0001
0010
0100
0000
0001
1000
,  // measure 27
0010
0000
0100
0000
0010
0000
1000
0100
0001
0000
0100
0000
0010
0000
0001
0100
,  // measure 28
1000
0000
0001
0000
0100
0000
0010
0000
0100
0001
1000
0100
0001
0000
0010
0100
,  // measure 29
0001
0000
0100
0000
0010
0000
0001
1000
0010
0000
0100
0000
0010
0000
0100
0001
,  // measure 30
0010
0000
0000
0010
0001
0000
0100
0010
0001
0100
0001
0100
1000
0000
0000
0000
,  // measure 31
0010
0000
0000
0001
0100
0000
0100
0010
0001
0100
0001
0100
1000
0000
0000
0000
,  // measure 32
0010
0000
0000
0001
0100
0000
0100
0010
0001
0100
0001
0100
1000
0000
0000
0000
,  // measure 33
0010
0001
0100
0010
0001
0100
0001
0100
0010
0001
1000
0001
0100
0010
0001
0100
,  // measure 34
1000
0000
0100
0000
0001
0010
0100
0001
0010
0000
0100
0000
0000
0000
0000
0000
0010
0000
0100
0000
0001
0010
0100
0001
1000
0000
0100
0000
0000
0000
0000
0000
,  // measure 35
0010
0000
0100
0000
0001
1000
0100
0001
0010
0000
0100
0000
0000
0000
0000
0000
0100
0000
0010
0000
0001
0100
0001
0010
1000
0000
0100
0000
0000
0000
0000
0000
,  // measure 36
0010
0100
0001
1000
0100
0010
0001
0100
0010
0001
0100
0010
0001
1000
0001
0100
,  // measure 37
0010
0001
0100
0001
0100
0010
0001
0100
0001
0100
0010
0001
1000
0001
0100
0010
,  // measure 38
1000
0100
0001
0001
1000
0001
0100
0010
,  // measure 39
0001
0100
0001
0100
0010
0001
0100
0001
,  // measure 40
0100
0010
0001
0100
0001
0100
1000
0100
,  // measure 41
0010
0001
0100
0001
0100
0010
0001
0100
,  // measure 42
0001
0100
0010
0001
1000
0001
0100
0010
,  // measure 43
0001
0100
0001
0100
0010
0001
0100
0001
,  // measure 44
0100
0010
0001
1000
0001
0100
0010
0001
,  // measure 45
0100
0001
0100
0010
0001
0100
0001
0100
,  // measure 46
1000
0010
0000
0100
0100
0001
0000
0010
,  // measure 47
0100
0001
0000
0001
0100
0010
0000
0000
,  // measure 48
0100
0001
0000
0010
1000
0100
0000
0010
,  // measure 49
0010
0100
0000
0100
0010
0001
0000
0000
;
