#VERSION:0.83;
#TITLE:found your love;
#SUBTITLE:;
#ARTIST:NOTD & Libby Whitehouse;
#TITLETRANSLIT:;
#SUBTITLETRANSLIT:;
#ARTISTTRANSLIT:;
#GENRE:;
#ORIGIN:;
#CREDIT:;
#BANNER:;
#BACKGROUND:;
#PREVIEWVID:;
#JACKET:;
#CDIMAGE:;
#DISCIMAGE:;
#LYRICSPATH:;
#CDTITLE:;
#MUSIC:NOTD & Libby Whitehouse - Found Your Love (Lyric Video).ogg;
#OFFSET:0.000000;
#SAMPLESTART:100.059883;
#SAMPLELENGTH:12.000000;
#SELECTABLE:YES;
#BPMS:0.000=130.000;
#STOPS:0.000=0.650,
92.000=1.000;
#DELAYS:;
#WARPS:;
#TIMESIGNATURES:0.000=4=4;
#TICKCOUNTS:0.000=4;
#COMBOS:0.000=1;
#SPEEDS:0.000=1.000=0.000=0;
#SCROLLS:0.000=1.000;
#FAKES:;
#LABELS:0.000=Song Start;
#BGCHANGES:;
#KEYSOUNDS:;
#ATTACKS:
;

//---------------dance-single - ----------------
#NOTEDATA:;
#CHARTNAME:;
#STEPSTYPE:dance-single;
#DESCRIPTION:;
#CHARTSTYLE:;
#DIFFICULTY:Hard;
#METER:11;
#RADARVALUES:0.417109,0.611790,0.000000,0.148463,0.032992,531.000000,531.000000,0.000000,27.000000,0.000000,0.000000,0.000000,0.000000,0.000000,0.417109,0.611790,0.000000,0.148463,0.032992,531.000000,531.000000,0.000000,27.000000,0.000000,0.000000,0.000000,0.000000,0.000000;
#CREDIT:;
#NOTES:
// measure 0
0000
0000
0000
0000
,  // measure 1
0000
0000
0000
0000
,  // measure 2
0000
0000
0000
0000
,  // measure 3
0000
0000
0000
0010
,  // measure 4
0001
0100
0002
0000
,  // measure 5
0003
0000
1000
0100
0001
0000
0001
0100
,  // measure 6
0010
0000
1000
0001
0100
0000
0001
0200
,  // measure 7
0000
0000
0300
0001
,  // measure 8
0100
0010
0200
0000
,  // measure 9
0000
0000
0300
0000
0100
0010
0100
0001
,  // measure 10
0010
0000
1000
0001
0100
0000
0001
0100
,  // measure 11
0010
0000
0000
0000
0000
1000
0100
0000
,  // measure 12
0001
0100
0020
0000
,  // measure 13
0000
0000
0030
0100
,  // measure 14
0001
0100
0020
0000
,  // measure 15
0000
0030
0001
0200
,  // measure 16
0000
0300
0001
0100
,  // measure 17
2000
3000
1000
0100
,  // measure 18
0002
0003
0010
0100
,  // measure 19
0002
0003
0100
0001
,  // measure 20
0002
0003
0100
0010
,  // measure 21
0200
0300
0001
0100
,  // measure 22
0100
0010
0100
0010
0100
0010
0100
0010
0100
0010
0100
0010
0100
0010
0100
0010
,  // measure 23
0100
0000
0100
0000
0001
1000
0100
0001
,  // measure 24
0100
0001
0010
0100
0001
1000
0001
0100
,  // measure 25
0001
1000
0001
0100
0010
0001
0100
0001
,  // measure 26
0100
0010
0001
0100
0001
0100
0010
0001
,  // measure 27
0100
0001
0010
1000
0010
0100
0001
0100
,  // measure 28
0001
0100
0010
0001
0100
0001
0100
0010
,  // measure 29
0001
0100
0001
0100
0010
0001
0100
0001
,  // measure 30
0100
0010
0001
0100
0001
0100
0010
0001
,  // measure 31
1000
0001
0100
0010
0001
0100
0001
0100
,  // measure 32
0010
0001
0100
0001
0100
0010
0001
1000
,  // measure 33
0001
0100
0010
0001
0100
0001
0100
0010
,  // measure 34
0001
0100
0001
0100
0010
0001
1000
0001
,  // measure 35
0100
0001
0100
0010
0001
0100
0001
0100
,  // measure 36
0010
0100
0010
0100
0010
0100
1000
0010
,  // measure 37
0100
0001
0100
0001
0100
0010
0001
0100
,  // measure 38
0001
0100
0001
0100
2000
0000
0000
0000
,  // measure 39
0000
0000
3000
0000
0100
0001
0010
0100
,  // measure 40
0001
0010
0100
0010
0100
0001
0010
0100
,  // measure 41
0001
0100
0001
0100
1000
0100
0010
0001
,  // measure 42
1000
0001
0100
0001
0010
0001
0010
0100
,  // measure 43
1000
0010
0100
0001
0100
0001
0100
0010
,  // measure 44
0001
0100
0001
0100
0001
0100
0010
0001
,  // measure 45
0100
0001
0100
1000
0100
0010
0100
0001
,  // measure 46
0100
0010
0100
0001
1000
0000
0010
0000
,  // measure 47
0000
0000
0000
0000
0100
0001
0100
0001
0010
0000
0010
0000
0001
0000
0100
0000
,  // measure 48
0001
0100
1000
0010
0001
0100
0010
0001
,  // measure 49
0100
0001
1000
0100
0010
0100
0001
0010
,  // measure 50
0001
0100
0001
0100
0010
0001
1000
0001
,  // measure 51
0100
0010
0001
0100
0001
0100
0010
0001
,  // measure 52
0100
0001
0100
0010
0001
1000
0001
0100
,  // measure 53
0010
0001
0100
0001
0100
0010
0001
0100
,  // measure 54
0001
0100
0010
0001
0100
0001
1000
0100
,  // measure 55
0001
0010
0100
0001
,  // measure 56
2000
0000
0000
3000
,  // measure 57
1000
0001
0100
0000
0001
0000
0100
0000
,  // measure 58
0010
0200
0000
0000
,  // measure 59
0300
0001
0100
0010
,  // measure 60
0200
0000
0000
0000
0300
0000
0001
0100
,  // measure 61
0010
0000
0100
0001
1000
0000
0100
0001
,  // measure 62
0010
0000
0100
0020
0000
0000
0000
0000
,  // measure 63
0030
0100
0010
0001
,  // measure 64
0200
0000
0000
0300
,  // measure 65
0100
0010
0001
0100
1000
0000
0001
0100
,  // measure 66
0010
0000
0100
0001
1000
0000
0000
0000
,  // measure 67
0000
0100
0001
0000
0001
0000
0100
0000
,  // measure 68
0020
0000
0000
0000
,  // measure 69
0030
0010
0001
0100
,  // measure 70
2000
0000
0000
3000
,  // measure 71
0100
0010
0200
0300
,  // measure 72
0010
0100
0002
0003
,  // measure 73
0001
0100
0020
0030
,  // measure 74
0010
0100
0020
0030
,  // measure 75
0001
0100
2000
3000
,  // measure 76
0010
0100
0200
0300
,  // measure 77
0100
0010
0020
0030
,  // measure 78
0100
0000
0000
0000
0010
0000
0000
0000
1000
0000
0100
0000
0001
0000
0010
0100
,  // measure 79
0001
1000
0001
0000
0010
0000
0000
0000
1000
0000
0100
0000
0100
0000
0010
0000
,  // measure 80
0100
0001
0001
0010
0100
0010
0100
0010
,  // measure 81
0100
0010
0010
0010
0010
0010
0010
0010
,  // measure 82
0010
0100
1000
0010
0100
0010
0100
0010
,  // measure 83
0100
0010
0001
0100
0001
0100
0010
0001
,  // measure 84
0100
0001
0100
0010
0100
1000
0100
0010
,  // measure 85
0100
0010
0010
0100
0100
0010
0010
0100
,  // measure 86
0100
1000
1000
0100
0100
0010
1000
0010
,  // measure 87
0100
0010
0100
0010
0100
0010
0001
0100
,  // measure 88
0001
0100
0010
0001
0100
0001
0100
0010
,  // measure 89
0001
0100
0001
0100
0010
0001
1000
0001
,  // measure 90
0100
0010
0001
0100
0001
0100
0010
0001
,  // measure 91
0100
0001
0100
0010
0001
0100
0001
0100
,  // measure 92
0010
0001
1000
0001
0100
0010
0001
0100
,  // measure 93
0001
0100
0010
0001
1000
0001
0100
0010
,  // measure 94
0001
0100
0001
0100
0010
0001
1000
0001
,  // measure 95
0100
0010
0001
0100
2000
0000
0000
0000
,  // measure 96
0000
0000
0000
3000
;
