#VERSION:0.83;
#TITLE:femboy;
#SUBTITLE:;
#ARTIST:Promis3;
#TITLETRANSLIT:;
#SUBTITLETRANSLIT:;
#ARTISTTRANSLIT:;
#GENRE:;
#ORIGIN:;
#CREDIT:;
#BANNER:;
#BACKGROUND:;
#PREVIEWVID:;
#JACKET:;
#CDIMAGE:;
#DISCIMAGE:;
#LYRICSPATH:;
#CDTITLE:;
#MUSIC:Promis3 - Femboy.ogg;
#OFFSET:0.000000;
#SAMPLESTART:100.059883;
#SAMPLELENGTH:12.000000;
#SELECTABLE:YES;
#BPMS:0.000=155.000;
#STOPS:0.000=1.200;
#DELAYS:;
#WARPS:;
#TIMESIGNATURES:0.000=4=4;
#TICKCOUNTS:0.000=4;
#COMBOS:0.000=1;
#SPEEDS:0.000=1.000=0.000=0;
#SCROLLS:0.000=1.000;
#FAKES:;
#LABELS:0.000=Song Start;
#BGCHANGES:0.000=Promis3 - Femboy.mp4=1.000=0=0=1=====,
99999=-nosongbg-=1.000=0=0=0 // don't automatically add -songbackground-
;
#KEYSOUNDS:;
#ATTACKS:
;

//---------------dance-single - ----------------
#NOTEDATA:;
#CHARTNAME:;
#STEPSTYPE:dance-single;
#DESCRIPTION:;
#CHARTSTYLE:;
#DIFFICULTY:Hard;
#METER:13;
#RADARVALUES:0.617499,0.637167,0.025615,0.019211,0.060835,675.000000,671.000000,4.000000,3.000000,0.000000,0.000000,0.000000,0.000000,0.000000,0.617499,0.637167,0.025615,0.019211,0.060835,675.000000,671.000000,4.000000,3.000000,0.000000,0.000000,0.000000,0.000000,0.000000;
#CREDIT:;
#NOTES:
// measure 0
0000
0000
0000
0000
,  // measure 1
0000
0000
0000
0000
,  // measure 2
0000
0000
0000
0000
,  // measure 3
0000
0000
0000
0000
,  // measure 4
0010
0001
0100
0010
0001
0100
0001
1000
,  // measure 5
0100
0001
0100
0010
0001
1000
0001
0100
,  // measure 6
0010
0001
0100
0001
0100
0001
1000
0100
,  // measure 7
0001
0000
0100
0000
0001
0000
0100
0010
,  // measure 8
0001
1000
0001
0100
1000
0000
0010
0001
,  // measure 9
1000
0001
0100
0001
2000
0000
3100
0001
,  // measure 10
0100
0000
0100
0000
0010
0000
1000
0001
,  // measure 11
0100
0000
0010
0001
0100
0000
0000
0010
,  // measure 12
0001
1000
0001
0100
0001
0000
0100
0100
,  // measure 13
0010
0000
1000
0001
0100
0000
0001
0100
,  // measure 14
0001
0100
0010
0001
1000
0001
0100
0001
,  // measure 15
0100
0001
1000
0000
0100
0000
1000
0001
,  // measure 16
0100
0000
0010
0100
0000
0001
1000
0000
0100
0000
0010
0000
1001
0000
0000
0000
,  // measure 17
0001
0100
0000
0010
0000
0100
0001
0000
0010
0000
0100
0000
0101
0000
0000
0000
,  // measure 18
0001
0100
0010
0001
1000
0001
0100
0010
,  // measure 19
1000
0100
0001
0010
0100
0000
0001
0000
1000
0000
0100
0000
0010
0000
0001
0000
,  // measure 20
0010
0010
0010
0100
0010
0001
1000
0001
,  // measure 21
0100
0000
0100
0001
0100
0000
0001
1000
,  // measure 22
0100
0010
0001
0100
0001
0100
0010
0001
,  // measure 23
1000
0001
0100
0000
0010
0000
0100
0001
,  // measure 24
0010
0100
1000
0001
0200
0000
0300
0000
,  // measure 25
0100
0010
0002
0003
,  // measure 26
0100
0001
0100
0100
0001
1000
0100
0010
,  // measure 27
0100
0010
0100
0001
0100
0001
0100
0001
,  // measure 28
0100
1000
0100
0010
0001
0100
0001
0100
,  // measure 29
0001
0100
0001
0100
0010
0001
0100
1000
,  // measure 30
0001
0100
0001
0100
0010
0100
0001
0100
,  // measure 31
0010
0001
0100
0001
0100
0010
0001
1000
,  // measure 32
0001
0100
0010
0001
1000
0001
0100
0010
,  // measure 33
0001
0000
0000
0000
0100
0000
0000
0000
0010
0000
0000
0000
0100
0000
1000
0100
,  // measure 34
0001
0100
0010
0001
0100
0001
0100
0001
,  // measure 35
0100
0010
0001
1000
0001
0100
0001
1000
,  // measure 36
0100
0001
0100
0001
0100
0001
0100
0010
,  // measure 37
0001
0100
0001
0100
0010
0001
1000
0001
,  // measure 38
0100
0010
0001
0100
0001
0100
0001
0100
,  // measure 39
0010
0001
1000
0001
0100
0010
0001
0100
,  // measure 40
0001
0000
0100
0000
0010
0000
0001
0100
,  // measure 41
1000
0000
0000
0000
0001
0000
0000
0000
0100
0000
0000
0000
0010
0000
0001
1000
,  // measure 42
0100
0010
0001
0100
1000
0000
0100
0000
,  // measure 43
1000
0000
0000
0000
0001
0000
0000
0000
0100
0000
0000
0000
1000
0001
0000
0000
,  // measure 44
0010
0001
0100
0100
,  // measure 45
0010
0000
0100
0000
1000
0000
0000
0100
,  // measure 46
0001
1000
0001
0010
0100
0000
0001
0100
,  // measure 47
0010
0000
0100
0001
0100
0000
0001
0100
,  // measure 48
0001
1000
0100
0010
0001
0100
0010
0001
,  // measure 49
1000
0001
0100
0000
0001
0000
0010
0100
,  // measure 50
1000
0000
0100
0001
0000
0010
0100
0000
0001
0000
0010
0000
1001
0000
0000
0000
,  // measure 51
1000
0100
0000
0001
0000
0010
0100
0000
0001
0000
0100
0000
1001
0000
0000
0000
,  // measure 52
0010
0100
0010
0001
1000
0001
0100
0010
,  // measure 53
0100
0001
1000
0100
0001
0000
0010
0000
0100
0000
0001
0000
1000
0000
0010
0000
,  // measure 54
0100
0001
0010
0100
0001
0000
1000
0100
,  // measure 55
0001
0000
0010
0100
0001
0000
1000
0001
,  // measure 56
0100
0010
0001
0100
0001
0100
0010
0001
,  // measure 57
1000
0001
0100
0000
0010
0000
1000
0001
,  // measure 58
0100
0010
0100
0000
0100
0000
0100
0000
,  // measure 59
1000
0100
0001
0100
,  // measure 60
0001
0100
0001
1000
0100
0000
0010
0000
,  // measure 61
0100
0001
1000
0001
,  // measure 62
0100
0010
0100
0010
0001
0000
0100
0000
,  // measure 63
0010
0001
0100
0010
,  // measure 64
0100
0001
0100
1000
0001
0000
0100
0000
,  // measure 65
0100
0001
0100
0001
,  // measure 66
0010
0100
0001
1000
0100
0000
0000
0000
,  // measure 67
0001
0100
0001
0000
0100
0000
0000
0000
,  // measure 68
0010
0100
0001
1000
0001
0010
0100
0001
,  // measure 69
1000
0001
0010
0100
0001
1000
0001
0010
,  // measure 70
0100
0001
0010
0001
1000
0001
0100
0010
,  // measure 71
0001
0100
0001
0100
0001
0100
0010
0001
,  // measure 72
1000
0001
0100
0010
0001
1000
0001
0100
,  // measure 73
0010
0001
0100
0001
0100
0010
0001
0100
,  // measure 74
0001
0100
0010
1000
0001
0100
0010
0001
,  // measure 75
0100
0001
0100
0010
0001
1000
0001
0100
,  // measure 76
0010
0001
0100
0001
0100
0001
0100
0010
,  // measure 77
0001
1000
0001
0100
0010
0001
0100
0001
,  // measure 78
0100
0010
0001
1000
0001
0100
0010
0001
,  // measure 79
0100
0001
0100
0010
0001
1000
0001
0100
,  // measure 80
0010
0001
0100
0001
0100
0010
0001
1000
,  // measure 81
0001
0100
0010
0001
0100
0001
0100
1000
,  // measure 82
0001
0000
0000
0000
0100
0000
0000
0000
0010
0000
0000
0000
0100
0000
0001
1000
,  // measure 83
0100
0000
0000
0000
0001
0000
0000
0000
0100
0000
0000
0000
0010
0000
0001
0100
,  // measure 84
1000
0010
0001
0100
0001
0010
0100
0100
,  // measure 85
0010
0001
1000
0001
0100
0010
0001
0100
,  // measure 86
0001
0100
0010
0001
1000
0001
0100
0010
,  // measure 87
0001
1000
0001
0100
0010
0001
0100
0001
,  // measure 88
0010
0100
0001
1000
0001
0100
0010
0100
,  // measure 89
0001
0100
0001
0100
0001
0100
1000
0100
,  // measure 90
0010
0100
0100
0001
0100
0001
0100
0010
,  // measure 91
0001
0001
0010
0100
0001
0100
0001
1000
,  // measure 92
0001
0100
0010
0001
0100
0001
0100
0010
,  // measure 93
0001
1000
0001
0100
0010
0001
0100
0001
,  // measure 94
0100
0010
0001
0100
0001
0100
0010
0001
,  // measure 95
1000
0001
0100
0010
0001
0100
0001
0100
,  // measure 96
0010
0001
1000
0001
0100
0010
0001
0100
,  // measure 97
0001
0100
0010
0001
1000
0001
0100
0010
,  // measure 98
1000
0001
0100
0010
0001
0000
0100
0000
,  // measure 99
1000
0001
0100
0000
;
