#TITLE:feel love;
#SUBTITLE:;
#ARTIST:PARTYOF2, Jadagrace, & SWIM;
#TITLETRANSLIT:;
#SUBTITLETRANSLIT:;
#ARTISTTRANSLIT:;
#GENRE:;
#CREDIT:;
#BANNER:;
#BACKGROUND:;
#LYRICSPATH:;
#CDTITLE:;
#MUSIC:PARTYOF2 - FEEL LOVE.ogg;
#OFFSET:0.000000;
#SAMPLESTART:100.059883;
#SAMPLELENGTH:12.000000;
#SELECTABLE:YES;
#BPMS:0.000000=105.000000
;
#STOPS:0.000000=0.100000
;
#BGCHANGES:0.000=PARTYOF2 - FEEL LOVE.mp4=1.000=0=0=1=====,
99999=-nosongbg-=1.000=0=0=0 // don't automatically add -songbackground-
;
#KEYSOUNDS:;
#ATTACKS:;

//---------------dance-single - ----------------
#NOTES:
     dance-single:
     :
     Hard:
     11:
     0.392126,0.610434,0.264496,0.158698,0.211597,467.000000,422.000000,45.000000,27.000000,0.000000,0.000000,0.392126,0.610434,0.264496,0.158698,0.211597,467.000000,422.000000,45.000000,27.000000,0.000000,0.000000:
// measure 0
0000
0000
0000
0000
,  // measure 1
0000
0000
0000
0000
,  // measure 2
0000
0000
0000
0000
,  // measure 3
0000
0000
0000
0000
1000
0100
0001
1000
,  // measure 4
0001
0000
0100
0001
1000
0000
0010
0000
0001
0000
1000
0000
0100
0000
0000
0000
,  // measure 5
1000
0000
0001
0100
0010
0000
1000
0100
0001
0000
0100
0000
1000
0000
0100
0001
,  // measure 6
0010
0000
0100
0000
0010
0000
0001
1000
0100
0000
0001
0000
0100
0000
0000
0000
,  // measure 7
0010
0001
0100
0010
0001
1000
0001
0100
1000
0000
0001
0000
1000
0000
0001
0000
,  // measure 8
0100
0000
0000
0000
0100
0001
1000
0100
0001
0000
1000
0000
0100
0000
0000
0000
,  // measure 9
0001
0000
0100
0000
0010
0000
0001
1000
0100
0000
0001
0000
1001
0000
0000
0000
,  // measure 10
0001
1000
0001
0100
1000
0000
0010
0000
0110
0000
0100
0000
1000
0000
0010
0100
,  // measure 11
0001
0000
0010
0000
0001
0000
0100
0000
0001
0000
1000
0000
0100
0000
0010
0001
,  // measure 12
0010
0000
0000
0010
0001
1000
0001
0100
,  // measure 13
0000
0001
0100
0010
0100
0000
1000
0000
,  // measure 14
0000
0000
0000
0000
1000
0001
0100
1000
,  // measure 15
0000
0010
0001
1000
0001
0100
2000
0000
,  // measure 16
0000
3000
0000
0000
1000
0001
0100
1000
,  // measure 17
0000
0100
0010
0001
1000
0001
0100
0000
,  // measure 18
0000
1000
0001
0100
1000
0000
0100
0000
,  // measure 19
0000
0100
0010
0001
1000
0001
0100
1000
,  // measure 20
0000
0000
0000
0200
0000
0002
0000
0000
,  // measure 21
0000
0000
0303
2000
0000
0200
0000
0000
,  // measure 22
0000
3300
0100
0002
0000
0200
0000
0003
,  // measure 23
0300
0000
0100
0002
0000
0000
0000
0000
,  // measure 24
0000
0000
0003
0010
0000
0100
0000
1001
,  // measure 25
0000
0101
0000
1000
0000
0001
0000
0110
,  // measure 26
0000
1001
0010
0100
0000
0001
0000
1001
,  // measure 27
0000
0101
1000
0200
0000
0300
0101
1100
,  // measure 28
0000
0000
0000
0000
0000
0000
0000
0000
0100
0001
0000
1000
0100
0000
1001
0000
,  // measure 29
0001
0100
0000
0010
0100
0000
1001
0000
0010
0100
0000
0001
1000
0000
1001
0000
,  // measure 30
0000
0000
0000
0000
0000
0000
0000
0000
0001
0100
0000
0010
0100
0000
1001
0000
,  // measure 31
0100
0001
0000
1000
0100
0000
1001
0000
0010
0100
0000
0001
1000
0000
1001
0000
,  // measure 32
0010
0100
0001
1000
0001
0010
0100
0010
1000
0100
0001
0000
1000
0000
1001
0000
,  // measure 33
0100
0001
1000
0000
0001
0100
0001
1000
0100
0010
0100
0000
0001
0000
1001
0000
,  // measure 34
0011
0000
1000
0100
0001
0100
0001
1000
0100
0000
0101
0000
1100
0000
0000
0000
,  // measure 35
1000
0000
0100
0000
0001
0000
0010
0100
0000
0001
1000
0000
0100
0000
0101
0000
,  // measure 36
1100
0000
0010
0000
0100
0001
1000
0000
0110
0000
1001
0000
0100
0010
0100
0000
,  // measure 37
0001
0000
0010
0000
0100
0000
0001
0000
0100
0000
0010
0000
0100
0001
1000
0000
,  // measure 38
0010
0100
0001
0000
0010
0000
0100
0001
1000
0000
0001
1000
0100
0000
0000
0000
,  // measure 39
0100
0001
1000
0000
0100
0000
0001
0100
1000
0000
0010
0000
2002
0000
0000
0000
,  // measure 40
0000
0000
3003
0100
0001
1000
0001
0100
,  // measure 41
0000
0001
1000
0100
0001
0000
0010
0000
,  // measure 42
0000
0000
0000
0000
1000
0001
0100
1000
,  // measure 43
0000
0010
0001
1000
0001
0100
1000
0200
,  // measure 44
0000
0000
0000
0300
0001
1000
0001
0010
,  // measure 45
0000
0010
0001
1000
0001
0100
1000
0100
,  // measure 46
0000
0001
1000
0100
0001
0000
0010
0000
,  // measure 47
0000
0100
0001
1000
0100
0001
0010
0100
,  // measure 48
0000
0000
0000
2000
0000
0200
0000
0000
,  // measure 49
0000
0000
3300
0002
0000
0020
0000
0000
,  // measure 50
0000
0033
1000
0200
0000
2000
0000
0000
,  // measure 51
0000
3300
0010
0200
0000
0000
0000
0000
,  // measure 52
0000
0000
0300
0001
0000
0010
0000
1100
,  // measure 53
0000
0101
0000
0010
0000
0100
0000
0110
,  // measure 54
0000
1010
1000
0001
0000
1000
0000
0110
,  // measure 55
0000
0101
0010
0200
0300
0000
0101
1001
,  // measure 56
0000
0000
0000
0000
0000
1000
0100
0001
,  // measure 57
0100
0100
0010
0000
1000
0000
0100
0000
,  // measure 58
1000
0000
0100
0000
0001
0000
0010
0100
,  // measure 59
0001
0000
0010
0001
1000
0000
0100
0000
,  // measure 60
0000
0000
0000
1001
0000
1001
0000
0202
,  // measure 61
0000
0303
0000
0110
0000
1001
0000
0202
,  // measure 62
0000
0303
0000
1100
0000
0101
0000
2020
,  // measure 63
0000
3030
0110
0110
0000
0000
0000
0000
,  // measure 64
0100
0001
1000
0100
0001
0000
0010
0100
0001
1000
0001
0000
0010
0001
0100
0000
,  // measure 65
0000
0000
1000
0000
0000
0000
0100
0001
0010
0100
0001
0000
0000
0000
1000
0000
,  // measure 66
0000
0000
0100
0000
0000
0000
0100
0001
0010
0100
0001
0000
0000
0000
0010
0000
,  // measure 67
0000
0000
0100
0000
0000
0000
0001
1000
0100
0001
0010
0000
0000
0000
0010
0000
,  // measure 68
0000
1000
0100
0001
0000
0000
0010
0100
0001
1000
0001
0000
0000
0000
1000
0000
,  // measure 69
0000
0000
0100
0000
0000
0000
0001
1000
0001
0100
1000
0000
0000
0000
0000
0000
,  // measure 70
0000
0000
0100
0000
0000
0000
0010
0001
1000
0001
0100
0000
0010
0001
0200
0000
,  // measure 71
0000
0000
0000
0300
0000
0000
0100
0001
1000
0001
0010
0000
0000
0000
0000
0000
;
