#TITLE:falling back;
#SUBTITLE:;
#ARTIST:Bryce Alakai;
#TITLETRANSLIT:;
#SUBTITLETRANSLIT:;
#ARTISTTRANSLIT:;
#GENRE:;
#CREDIT:;
#BANNER:;
#BACKGROUND:;
#LYRICSPATH:;
#CDTITLE:;
#MUSIC:Falling Back.ogg;
#OFFSET:0.000000;
#SAMPLESTART:100.059883;
#SAMPLELENGTH:12.000000;
#SELECTABLE:YES;
#BPMS:0.000000=134.000000
;
#STOPS:0.000000=0.050000
;
#BGCHANGES:;
#KEYSOUNDS:;
#ATTACKS:;

//---------------dance-single - ----------------
#NOTES:
     dance-single:
     :
     Hard:
     12:
     0.506750,0.534563,0.060021,0.096034,0.054019,591.000000,581.000000,10.000000,16.000000,0.000000,0.000000,0.506750,0.534563,0.060021,0.096034,0.054019,591.000000,581.000000,10.000000,16.000000,0.000000,0.000000:
// measure 0
0000
0000
0000
0000
,  // measure 1
0000
0000
0000
0000
,  // measure 2
2002
0000
0000
0000
0000
0000
3003
0010
,  // measure 3
0001
0000
0000
0100
0000
0000
0010
0000
0001
0000
0100
0000
1000
0000
0000
0000
,  // measure 4
0000
0000
0010
0001
1000
0001
0100
0010
,  // measure 5
0100
0000
0000
0001
0000
0000
0010
0000
0100
0000
0100
0000
1000
0000
0000
0000
,  // measure 6
0000
0000
0010
0001
0100
0100
0001
1000
,  // measure 7
0001
0000
0000
0100
0000
0000
0010
0000
0001
0000
0100
0000
1000
0000
0000
0000
,  // measure 8
0000
0000
0001
0100
0001
0100
1000
0010
,  // measure 9
0100
0000
0000
0001
0000
0000
0010
0000
0001
0000
0100
0000
1000
0000
0010
0000
,  // measure 10
0000
0100
0001
1000
0001
0010
0100
0000
,  // measure 11
0000
0010
0001
0100
0001
0100
1000
0000
,  // measure 12
0000
0010
0001
0100
0001
0100
1000
0000
,  // measure 13
0000
0010
0100
0010
0001
0100
1000
0000
,  // measure 14
0000
0010
0001
0100
0001
0100
1000
0000
,  // measure 15
0000
0010
0001
0100
0001
0100
1000
0000
,  // measure 16
0000
0010
0001
0100
0001
0100
1000
0000
,  // measure 17
0000
0010
0001
0100
0001
0100
1000
0000
,  // measure 18
0010
0100
0001
1000
0001
0010
0100
0001
,  // measure 19
0010
0100
0001
0100
0010
0001
0001
0001
,  // measure 20
0001
0001
1000
0100
0010
0001
0100
0001
,  // measure 21
0100
0010
0001
0010
0100
1000
0100
0010
,  // measure 22
0100
0010
0001
0100
0001
0100
0010
0001
,  // measure 23
1000
0001
0100
0010
0001
0100
0001
0100
,  // measure 24
0010
0001
0100
0001
0100
0010
0001
0100
,  // measure 25
0001
0100
1000
0100
0010
0001
0100
0001
,  // measure 26
0010
0100
0001
0100
0010
0001
0100
0001
,  // measure 27
0100
0010
0001
1000
0001
0100
0010
0001
,  // measure 28
0100
0001
0100
0010
0001
1000
0001
0100
,  // measure 29
0010
0001
0100
0001
0100
0010
0001
0100
,  // measure 30
0001
0100
0010
0001
1000
0001
0100
0010
,  // measure 31
0001
0100
0001
0100
0010
0001
1000
0001
,  // measure 32
0100
0010
0001
0100
0001
0100
0010
0001
,  // measure 33
1000
0001
0100
0010
0001
0100
0001
0100
,  // measure 34
2002
0000
0000
0000
0000
0000
3003
0010
,  // measure 35
0010
0000
0000
0010
0000
0000
0100
0000
1000
0000
0100
0000
0001
0000
0000
0000
,  // measure 36
0000
0000
0100
0010
0001
0100
0001
0100
,  // measure 37
1000
0000
0000
0001
0000
0000
0010
0000
0100
0000
0001
0000
0010
0000
0000
0000
,  // measure 38
0000
0000
0010
0001
0100
0100
1000
0010
,  // measure 39
0100
0000
0000
0001
0000
0000
0010
0000
0100
0000
0001
0000
1000
0000
0000
0000
,  // measure 40
0000
0000
0100
0010
0001
1000
0001
0100
,  // measure 41
0010
0000
0000
0001
0000
0000
0100
0000
0010
0000
1000
0100
0010
0100
0001
0000
,  // measure 42
0011
0100
0001
0000
0000
0000
0000
0000
,  // measure 43
1000
0001
0100
0000
0001
0100
0010
0000
,  // measure 44
0001
0000
0100
0000
1000
0000
0000
0000
0000
0000
0000
0000
0100
0010
0100
0000
,  // measure 45
0001
0000
1000
0000
0100
0000
0000
0000
0010
0000
0000
0100
0001
0000
0010
0000
,  // measure 46
0100
0000
0010
0001
0100
0000
0000
0000
0000
0000
0000
0000
0100
0000
0001
0000
,  // measure 47
0010
0100
0010
0000
0000
0000
0001
0100
,  // measure 48
0010
0100
0001
0000
0000
0000
0000
0000
,  // measure 49
0010
0001
0100
0010
0001
0100
0001
0100
,  // measure 50
2002
0000
0000
0000
0000
0000
3003
0001
,  // measure 51
0100
0000
0000
0010
0000
0000
0001
0000
0100
0000
0010
0000
0001
0000
0000
0000
,  // measure 52
0220
0000
0000
0330
,  // measure 53
0001
0100
0001
1000
0002
0000
0003
0000
,  // measure 54
2002
0000
0000
0000
0000
0000
3003
0001
,  // measure 55
0010
0000
0000
0001
0000
0000
0100
0000
0001
0000
0100
0000
1000
0000
0000
0000
,  // measure 56
0200
0000
0000
0000
0300
0000
0001
1000
,  // measure 57
0100
0010
0100
0010
0100
0001
1000
0001
,  // measure 58
0010
0010
0010
0100
0001
0100
1000
0000
,  // measure 59
0000
0010
0001
0100
0001
0100
1000
0000
,  // measure 60
0000
0010
0100
0001
1000
0001
0010
0000
,  // measure 61
0000
0010
0001
0100
0001
0100
1000
0010
,  // measure 62
0100
0000
0000
0001
0000
0000
0010
0000
0100
0000
0001
0000
1000
0000
0000
0000
,  // measure 63
0000
0000
1000
0001
0100
0010
0100
0001
,  // measure 64
0010
0000
0000
0000
0000
0000
0000
0100
,  // measure 65
0010
0000
0000
0001
0000
0000
0010
0000
0100
0000
0010
0000
2002
0000
0000
0000
,  // measure 66
0000
0000
0000
3003
,  // measure 67
0110
0100
0001
1000
0001
0010
0100
0001
,  // measure 68
0100
0001
0010
0100
0001
1000
0001
0010
,  // measure 69
0100
0001
0100
0001
0010
0100
0001
1000
,  // measure 70
0001
0010
0100
0001
0100
0001
0010
0100
,  // measure 71
0001
1000
0001
0010
0100
0001
0100
0001
,  // measure 72
0010
0100
0001
1000
0001
0010
0100
0010
,  // measure 73
0100
0010
0100
0010
0100
0010
0100
0010
,  // measure 74
0100
0001
0100
0001
0100
0001
0100
0001
,  // measure 75
0010
0100
0010
0010
0010
0010
0010
0010
,  // measure 76
0010
0100
1000
0100
0001
0100
0001
0010
,  // measure 77
0100
0001
0100
0010
0001
0100
0001
1000
,  // measure 78
0100
0001
0010
0100
0010
0001
0100
0001
,  // measure 79
0100
0010
0001
0100
0001
0100
0010
0001
,  // measure 80
0100
0001
0100
0010
0001
1000
0001
0100
,  // measure 81
0010
0001
0100
0001
0100
0010
0001
0100
,  // measure 82
0001
0100
0010
0001
0100
0001
0100
0010
,  // measure 83
1001
0001
0010
0100
0001
1000
0001
0010
,  // measure 84
0100
0000
0010
0000
0001
0000
0100
0000
0001
0000
0100
0000
0010
0000
1000
0100
,  // measure 85
0001
0100
0010
0001
0100
0001
0100
0010
,  // measure 86
0001
0100
0001
0100
0010
0001
0100
0001
,  // measure 87
0100
1000
0100
0010
0001
0100
0001
0100
,  // measure 88
0001
0010
0100
0010
0001
0100
0001
0100
,  // measure 89
1000
0010
0100
0001
1000
0001
0010
0100
,  // measure 90
0010
0001
0100
0010
,  // measure 91
2002
0000
0000
0000
,  // measure 92
0000
0000
0000
0000
,  // measure 93
0000
0000
0000
3003
;
