#VERSION:0.83;
#TITLE:fade;
#SUBTITLE:;
#ARTIST:Alesso & Pendulum;
#TITLETRANSLIT:;
#SUBTITLETRANSLIT:;
#ARTISTTRANSLIT:;
#GENRE:;
#ORIGIN:;
#CREDIT:;
#BANNER:;
#BACKGROUND:;
#PREVIEWVID:;
#JACKET:;
#CDIMAGE:;
#DISCIMAGE:;
#LYRICSPATH:;
#CDTITLE:;
#MUSIC:Alesso, Pendulum - FADE (Official Visualizer).ogg;
#OFFSET:0.000000;
#SAMPLESTART:100.059883;
#SAMPLELENGTH:12.000000;
#SELECTABLE:YES;
#BPMS:0.000=132.000;
#STOPS:0.000=0.250;
#DELAYS:;
#WARPS:;
#TIMESIGNATURES:0.000=4=4;
#TICKCOUNTS:0.000=4;
#COMBOS:0.000=1;
#SPEEDS:0.000=1.000=0.000=0;
#SCROLLS:0.000=1.000;
#FAKES:;
#LABELS:0.000=Song Start;
#BGCHANGES:;
#KEYSOUNDS:;
#ATTACKS:
;

//---------------dance-single - ----------------
#NOTEDATA:;
#CHARTNAME:;
#STEPSTYPE:dance-single;
#DESCRIPTION:;
#CHARTSTYLE:;
#DIFFICULTY:Hard;
#METER:14;
#RADARVALUES:0.546334,0.711292,0.000000,0.076052,0.298777,704.000000,704.000000,0.000000,14.000000,0.000000,0.000000,0.000000,0.000000,0.000000,0.546334,0.711292,0.000000,0.076052,0.298777,704.000000,704.000000,0.000000,14.000000,0.000000,0.000000,0.000000,0.000000,0.000000;
#CREDIT:;
#NOTES:
// measure 0
0000
0000
0000
0000
,  // measure 1
0000
0000
0000
0000
,  // measure 2
0000
0000
0000
0000
,  // measure 3
0000
0000
0000
0000
0000
0001
0100
0002
,  // measure 4
0000
0000
0000
0000
0000
0003
1000
0200
,  // measure 5
0000
0000
0000
0000
0300
0100
0010
0001
,  // measure 6
0000
0001
0000
0200
0000
0000
0000
0000
,  // measure 7
0000
0000
0000
0000
0300
0010
0001
0200
,  // measure 8
0000
0000
0000
0000
0000
0300
0010
0001
,  // measure 9
0000
0100
0000
0010
0000
0000
0001
0200
,  // measure 10
0000
0000
0000
0000
,  // measure 11
0000
0000
0000
0000
0300
0001
0100
2000
,  // measure 12
0000
0000
0000
0000
3000
0000
0001
0200
,  // measure 13
0000
0000
0000
0000
0300
0100
0001
0010
,  // measure 14
0000
0001
0000
0100
0000
0000
0001
0020
,  // measure 15
0000
0000
0000
0030
0000
0010
0001
0200
,  // measure 16
0000
0000
0000
0000
0300
0000
1000
0001
,  // measure 17
0000
0100
0000
0010
0000
0000
0001
0200
,  // measure 18
0000
0000
0000
0000
,  // measure 19
0000
0000
0000
0000
0000
0000
0000
0300
,  // measure 20
0010
0000
0000
1000
0000
0000
0001
0000
0000
0010
0000
0000
0100
0000
0000
0000
,  // measure 21
0100
0000
0000
0010
0000
0000
0001
0000
0000
0100
0000
0001
0010
0000
0100
0000
,  // measure 22
0001
0000
0000
0100
0000
0000
0010
0000
0000
0001
0000
0000
0010
0000
0100
0000
,  // measure 23
0001
0000
0000
0010
0000
0000
0001
0000
0000
0100
0010
0000
0001
0000
0200
0000
,  // measure 24
0000
0000
0000
0300
0000
0100
0001
1000
,  // measure 25
0000
0100
0000
0010
0000
0000
0001
0200
,  // measure 26
0000
0000
0000
0000
,  // measure 27
0000
0000
0000
0000
0000
0000
0000
0300
,  // measure 28
0010
0000
0001
0010
0100
0000
0010
0000
0001
0010
0100
0000
0001
0000
1000
0000
,  // measure 29
0001
0000
0010
0001
0100
0000
0010
0000
1000
0001
0100
0001
0010
0000
0100
0000
,  // measure 30
0010
0000
0100
0001
1000
0000
0100
0000
0001
0010
0100
0000
0001
0000
1000
0000
,  // measure 31
0010
0000
0001
0010
0100
0000
0010
0000
0001
0100
0010
1000
0001
0000
0100
0000
,  // measure 32
0010
0000
0100
0001
1000
0000
0100
0000
0001
0010
0100
0000
0001
0000
0100
0000
,  // measure 33
0010
0000
0100
0001
1000
0000
0100
0000
0001
0010
0100
0001
1000
0000
0100
0000
,  // measure 34
0001
0000
0010
0100
0001
0000
1000
0000
0100
0010
0001
0000
0010
0000
0100
0000
,  // measure 35
0100
0000
0010
0000
0001
0000
0100
0000
1000
0001
0100
0010
0001
0010
0100
0001
,  // measure 36
0010
0100
0010
0100
0010
0100
0010
0100
,  // measure 37
0100
0010
0100
0010
0001
0100
0001
0100
,  // measure 38
1000
0010
0100
1000
0100
0010
0100
0010
,  // measure 39
0001
0001
0001
0001
0001
0001
0001
0001
,  // measure 40
0001
0001
0010
0001
0100
0001
0100
0010
,  // measure 41
0001
0100
0010
0100
0001
0100
0010
0100
,  // measure 42
1000
0010
0100
0001
0010
0100
1000
0100
,  // measure 43
0010
0001
0100
0001
0100
0010
0001
0100
,  // measure 44
0001
0100
0001
0100
0010
0100
1000
0100
,  // measure 45
0010
0010
0010
0010
0010
0010
0100
0100
,  // measure 46
0010
0100
0010
0100
1000
0010
0100
0001
,  // measure 47
0100
0001
0010
0100
0010
0100
0010
0100
,  // measure 48
0010
0010
0100
0010
0100
0100
1000
0100
,  // measure 49
0100
0010
0100
0010
0100
1000
0100
0010
,  // measure 50
0100
0010
0100
0010
0100
0010
0100
1000
,  // measure 51
0100
0010
0001
0100
0001
0100
0010
0001
,  // measure 52
0100
0010
0001
1000
0001
0100
0010
0001
,  // measure 53
0100
0001
0100
0010
0001
0100
0010
0001
,  // measure 54
1000
0001
0100
0010
0001
0100
0001
0100
,  // measure 55
0010
0001
0100
0001
0100
0010
0001
0100
,  // measure 56
0001
0100
1000
0010
0100
0010
0100
0010
,  // measure 57
0100
0010
0100
1000
0100
0010
0100
0010
,  // measure 58
0100
0010
0001
0100
0010
0100
1000
0100
,  // measure 59
0010
0100
0010
0100
0010
0100
1000
0100
,  // measure 60
0010
0100
0001
0100
0010
0001
0100
0010
,  // measure 61
0100
0001
0100
0010
0100
1000
0100
0010
,  // measure 62
0001
0100
0001
0100
0010
0001
0100
0001
,  // measure 63
0100
0010
0001
1000
0001
0100
0010
0001
,  // measure 64
0100
0001
0100
0010
1000
0100
0001
0010
,  // measure 65
0010
0001
0100
0001
0100
0010
0001
0100
,  // measure 66
0001
0100
0010
0001
1000
0001
0100
0010
,  // measure 67
0001
0100
0001
0100
0010
0100
1000
0001
,  // measure 68
0010
0000
0000
0001
0000
0000
0100
0000
0000
0010
0000
0000
0001
0000
0100
0000
,  // measure 69
0010
0000
0000
0001
0000
0000
0100
0000
0000
0010
0000
0100
0001
0000
0010
0000
,  // measure 70
0010
0000
0000
0001
0000
0000
0100
0000
0000
0010
0000
0000
0001
0000
0100
0000
,  // measure 71
1000
0000
0000
0010
0000
0000
0001
0000
0000
0100
0000
0010
0001
0000
1000
0000
,  // measure 72
0100
0000
0000
0001
0000
0000
0010
0000
0000
0100
0000
0000
0001
0000
1000
0000
,  // measure 73
0010
0000
0000
0001
0000
0000
0100
0000
0000
0010
0000
0001
0010
0000
0100
0000
,  // measure 74
0001
0000
0000
0100
0000
0000
0010
0000
0000
0100
0000
0000
0001
0000
0010
0000
,  // measure 75
0100
0000
0000
0010
0000
0000
0001
0000
0000
0100
0000
0010
0001
0000
0100
0000
,  // measure 76
0010
0000
0000
0100
0001
0000
1000
0000
0100
0010
0000
0100
0001
0000
0100
0000
,  // measure 77
0010
0000
0000
0001
0010
0000
0100
0000
0001
1000
0000
0100
0001
0000
0010
0000
,  // measure 78
0001
0000
0000
0100
0010
0000
0001
0000
0100
1000
0000
0010
0001
0000
0100
0000
,  // measure 79
0100
0000
0000
0001
0100
0000
0010
0000
1000
0100
0000
0001
0010
0000
0100
0000
,  // measure 80
0100
0010
0001
0100
0001
0100
0010
0001
,  // measure 81
0100
0001
0100
0010
0001
1000
0001
0100
,  // measure 82
0010
0100
0010
0100
0010
0100
0010
0100
0010
0100
0010
0100
0010
0100
0010
0100
,  // measure 83
2000
0000
0000
0000
0000
3000
1000
0001
,  // measure 84
0100
0000
0001
1000
0100
0000
0001
0000
0010
0100
0001
0000
0100
0000
0010
0000
,  // measure 85
0100
0000
0001
0010
0100
0000
0001
0000
1000
0100
0001
0100
0001
0000
0010
0000
,  // measure 86
0100
0000
0001
0010
0100
0000
0001
0000
1000
0100
0001
0000
0010
0000
0100
0000
,  // measure 87
0001
0000
0010
0100
0001
0000
1000
0000
0100
0001
0010
0100
0001
0000
1000
0000
,  // measure 88
0100
0000
0001
0010
0100
0000
0001
0000
1000
0001
0100
0000
0010
0000
0100
0000
,  // measure 89
0001
0000
1000
0100
0001
0000
0010
0000
0100
0001
0010
1000
0001
0000
1000
0000
,  // measure 90
0100
0000
0001
0010
0100
0000
0001
0000
1000
0010
0100
0000
0001
0000
0010
0000
,  // measure 91
0100
0000
0001
1000
0100
0000
0001
0000
0010
0100
0001
1000
0001
0000
0010
0000
,  // measure 92
0100
0000
0001
1000
0100
0000
0001
0000
0010
0100
0001
0000
0001
0000
0010
0000
,  // measure 93
0100
0000
0001
0010
0100
0000
0001
0000
1000
0100
0001
0010
0001
0000
0010
0000
,  // measure 94
0100
0000
0001
1000
0100
0000
0010
0000
0100
0001
0010
0000
0001
0000
0010
0000
,  // measure 95
0100
0000
0001
1000
0100
0000
0001
0000
0010
0100
0001
1000
0010
0000
0100
0000
,  // measure 96
0001
0000
1000
0100
0001
0000
0010
0000
0100
0001
0010
0000
0001
0000
1000
0000
,  // measure 97
0100
0000
0001
0010
0100
0000
0001
0000
1000
0100
0001
0100
0010
0000
0100
0000
,  // measure 98
0001
0000
0010
1000
0100
0000
0010
0000
0100
0001
0010
0000
0001
0000
0000
0000
,  // measure 99
0001
0100
0010
0000
0001
0000
0100
0000
1000
0001
0100
0010
0001
0000
0100
0000
,  // measure 100
0020
0000
0000
0000
,  // measure 101
0000
0000
0000
0000
,  // measure 102
0000
0000
0000
0000
,  // measure 103
0000
0000
0000
0000
,  // measure 104
0000
0000
0000
0030
;
