#VERSION:0.83;
#TITLE:exitin;
#SUBTITLE:;
#ARTIST:CeCe Natalie;
#TITLETRANSLIT:;
#SUBTITLETRANSLIT:;
#ARTISTTRANSLIT:;
#GENRE:;
#ORIGIN:;
#CREDIT:;
#BANNER:;
#BACKGROUND:;
#PREVIEWVID:;
#JACKET:;
#CDIMAGE:;
#DISCIMAGE:;
#LYRICSPATH:;
#CDTITLE:;
#MUSIC:Exitin.ogg;
#OFFSET:0.000000;
#SAMPLESTART:100.059883;
#SAMPLELENGTH:12.000000;
#SELECTABLE:YES;
#BPMS:0.000=93.000;
#STOPS:;
#DELAYS:;
#WARPS:;
#TIMESIGNATURES:0.000=4=4;
#TICKCOUNTS:0.000=4;
#COMBOS:0.000=1;
#SPEEDS:0.000=1.000=0.000=0;
#SCROLLS:0.000=1.000;
#FAKES:;
#LABELS:0.000=Song Start;
#BGCHANGES:;
#KEYSOUNDS:;
#ATTACKS:
;

//---------------dance-single - ----------------
#NOTEDATA:;
#CHARTNAME:;
#STEPSTYPE:dance-single;
#DESCRIPTION:;
#CHARTSTYLE:;
#DIFFICULTY:Hard;
#METER:9;
#RADARVALUES:0.303014,0.466428,0.000000,0.395369,0.085485,397.000000,397.000000,0.000000,74.000000,0.000000,0.000000,0.000000,0.000000,0.000000,0.303014,0.466428,0.000000,0.395369,0.085485,397.000000,397.000000,0.000000,74.000000,0.000000,0.000000,0.000000,0.000000,0.000000;
#CREDIT:;
#NOTES:
// measure 0
0000
0000
0000
0000
,  // measure 1
0000
0000
0000
0000
,  // measure 2
0000
0000
0000
0000
,  // measure 3
0000
0000
0000
0000
0000
0001
0100
0010
,  // measure 4
0020
0000
0200
0000
0330
0010
0001
0100
,  // measure 5
2000
0000
0200
0000
3300
0001
0100
0010
,  // measure 6
2000
0000
0200
0000
3300
0010
0100
0001
,  // measure 7
0020
0000
0200
0000
0330
0010
0001
0100
,  // measure 8
2000
0000
0200
0000
3300
0100
0001
0100
,  // measure 9
2000
0000
0200
0000
3300
0100
0001
0100
,  // measure 10
0002
0000
0020
0000
0033
0001
0100
0010
,  // measure 11
2000
0200
3300
0000
,  // measure 12
0000
0000
0000
0010
0001
1000
0001
0100
,  // measure 13
0010
0001
0100
0001
0100
0010
0100
0001
,  // measure 14
1000
0000
0010
0100
0001
0100
0010
0001
,  // measure 15
1000
0001
0100
0010
0001
0100
0001
0100
,  // measure 16
2000
0000
3000
0100
0001
1000
0100
0001
,  // measure 17
1000
0001
0100
0001
0010
0100
0001
0100
,  // measure 18
0010
0000
0001
0100
0001
0100
0010
0001
,  // measure 19
1000
0001
0100
0010
0001
0100
0001
0100
,  // measure 20
2000
0000
0200
0000
3300
0000
0100
0001
,  // measure 21
0020
0000
0200
0000
0330
0100
0001
0100
,  // measure 22
2000
0000
0200
0000
0000
3300
0001
0010
,  // measure 23
0200
0000
0020
0000
0330
0010
0001
0100
,  // measure 24
2000
0000
0200
0000
3300
0001
0100
0001
,  // measure 25
0020
0000
0200
0000
0330
0010
0001
0100
,  // measure 26
2000
0000
0200
0000
3300
0010
0100
0001
,  // measure 27
0200
0002
0000
0000
,  // measure 28
0000
0000
0303
0010
0001
0100
0001
1000
,  // measure 29
0100
0100
0010
0001
0100
0001
0100
0010
,  // measure 30
0001
0000
0001
0100
0010
0001
0100
0001
,  // measure 31
0100
0010
0001
1000
0001
0100
0010
0001
,  // measure 32
0100
0000
0000
0010
0001
0100
0010
0001
,  // measure 33
1000
0001
0100
0010
0001
0100
0001
0100
,  // measure 34
1000
0000
0010
0100
0001
1000
0001
0010
,  // measure 35
0100
0001
0100
0010
0001
0100
0001
0100
,  // measure 36
2000
0000
0200
0000
3300
0100
0010
0001
,  // measure 37
0200
0000
0002
0000
0303
0010
0100
0001
,  // measure 38
0020
0000
2000
0000
3030
0010
0100
0001
,  // measure 39
0020
0000
0200
0000
0330
0001
0100
0010
,  // measure 40
2000
0000
0200
0000
3300
0100
0001
0010
,  // measure 41
0200
0000
0020
0000
0330
0001
1000
0001
,  // measure 42
0020
0000
0002
0000
0033
0100
0001
1000
,  // measure 43
0002
0020
0000
0033
,  // measure 44
0010
0001
0100
0010
0001
0100
0001
1000
,  // measure 45
0100
0010
0001
0100
0010
0001
0100
0001
,  // measure 46
0100
0010
0001
0100
0001
0100
0010
0001
,  // measure 47
1000
0001
0100
0010
0001
0100
0001
0100
,  // measure 48
0200
0000
0020
0000
0330
0000
1000
0100
,  // measure 49
0002
0000
0200
0000
0303
0010
0001
0100
,  // measure 50
2000
0000
0200
0000
3300
0000
0001
0100
,  // measure 51
0002
0000
0200
0000
0303
0100
0001
0010
,  // measure 52
2000
0000
0200
0000
3300
0010
0001
0100
,  // measure 53
0002
0000
0020
0000
0033
0001
1000
0100
,  // measure 54
0020
0000
0200
0000
0330
0010
0001
0100
,  // measure 55
2000
0200
0000
3300
,  // measure 56
0100
0010
0000
0000
0100
0001
0010
0000
0100
0001
1000
0000
0100
0001
0010
0000
,  // measure 57
0100
0010
0001
0000
0100
0010
0001
0000
0100
1000
0001
0000
0100
0010
0001
0000
,  // measure 58
1000
0100
0000
0000
0010
0001
0100
0000
0010
0001
0100
0000
1000
0001
0100
0000
,  // measure 59
0010
0001
0100
0000
0010
0001
0100
0000
1000
0001
0100
0000
0010
0001
0100
0000
,  // measure 60
0010
0100
0000
0000
0001
0100
0010
0000
0001
1000
0100
0000
0010
0001
0100
0000
,  // measure 61
0010
0001
0100
0000
0010
0001
0100
0000
1000
0001
0100
0000
0010
0001
0100
0000
,  // measure 62
0010
0100
0000
0000
0010
0100
0001
0000
1000
0100
0001
0000
0010
0001
0100
0000
,  // measure 63
0010
0001
0100
0000
0010
0001
0100
0000
1000
0001
0100
0000
0010
0001
0100
0000
,  // measure 64
2000
0000
0000
0000
0000
0000
3000
0100
,  // measure 65
0200
0000
0000
0000
0000
0000
0300
0001
,  // measure 66
0002
0000
0000
0000
0000
0000
0003
0010
,  // measure 67
0020
0000
0000
0030
,  // measure 68
2000
0000
0000
3000
,  // measure 69
0200
0000
0000
0300
,  // measure 70
0020
0000
0000
0030
,  // measure 71
0200
0000
0000
0000
,  // measure 72
2000
0000
0000
3300
;
