#TITLE:everytime;
#SUBTITLE:;
#ARTIST:Bakar & Lancey Foux;
#TITLETRANSLIT:;
#SUBTITLETRANSLIT:;
#ARTISTTRANSLIT:;
#GENRE:;
#CREDIT:;
#BANNER:;
#BACKGROUND:;
#LYRICSPATH:;
#CDTITLE:;
#MUSIC:Bakar - Everytime ft. Lancey Foux.ogg;
#OFFSET:0.000000;
#SAMPLESTART:100.059883;
#SAMPLELENGTH:12.000000;
#SELECTABLE:YES;
#BPMS:0.000000=130.000000
,184.000000=131.000000
,208.000000=130.000000
;
#STOPS:0.000000=0.600000,
184.000000=0.050000
;
#BGCHANGES:;
#KEYSOUNDS:;
#ATTACKS:;

//---------------dance-single - ----------------
#NOTES:
     dance-single:
     :
     Hard:
     11:
     0.436490,0.513284,0.022844,0.039978,0.199888,535.000000,531.000000,4.000000,7.000000,0.000000,0.000000,0.436490,0.513284,0.022844,0.039978,0.199888,535.000000,531.000000,4.000000,7.000000,0.000000,0.000000:
// measure 0
0000
0000
0000
0000
,  // measure 1
0000
0000
0000
0000
,  // measure 2
0000
0000
0000
0000
,  // measure 3
0000
0000
0000
0000
,  // measure 4
0100
0000
0010
0000
0100
0001
0100
0010
,  // measure 5
0100
0001
0100
0010
0000
0000
0000
0000
,  // measure 6
0100
0000
0010
0000
0001
0100
0010
0001
,  // measure 7
1000
0001
0100
0010
0000
0001
0000
0010
,  // measure 8
0000
0001
0100
0001
0100
1000
0000
0010
,  // measure 9
0000
0001
1000
0001
0100
0001
0000
0100
,  // measure 10
0000
0010
0001
0100
0001
1000
0001
0100
,  // measure 11
0010
0000
0000
0000
0001
0010
1000
0100
,  // measure 12
0000
0000
0000
0100
0010
0001
1000
0001
,  // measure 13
0100
0000
0010
0001
0100
0001
0100
1000
,  // measure 14
0000
0000
0000
0000
0000
0000
1000
0000
0100
0000
0010
0000
0100
0001
1000
0100
,  // measure 15
0001
0000
0000
0010
0000
0000
0001
0000
0100
0000
0010
0000
0100
0000
0001
0000
,  // measure 16
0000
0000
0000
0000
0000
1000
0100
0000
0010
0000
0000
0001
0010
0100
0001
0000
,  // measure 17
0010
0000
0000
0100
0000
0001
0000
0000
1000
0000
0000
0100
0000
0001
0000
0000
,  // measure 18
0000
0000
0000
0000
0000
0000
1000
0100
0001
0000
0010
0100
0001
0000
1000
0100
,  // measure 19
0001
0000
0000
0010
0000
0010
0000
0000
0100
0000
0000
0100
0000
0100
0000
0000
,  // measure 20
0000
0000
0000
0000
0000
0000
0100
0000
0001
0000
1000
0000
0001
0000
0010
0100
,  // measure 21
0001
0000
0100
0010
0100
0000
0001
0010
0100
0000
0000
0100
0000
0100
0000
0000
,  // measure 22
0000
0000
0010
0000
0100
0000
0010
0100
0100
0000
0010
0000
0100
0000
0000
0000
,  // measure 23
0100
0000
0001
1000
0100
0000
0001
0100
0001
0000
0000
0010
0000
0100
0000
0000
,  // measure 24
0000
0000
0000
0000
0100
0000
0001
0000
1000
0100
0001
0000
0001
0000
0000
0000
,  // measure 25
0101
0000
0101
0000
,  // measure 26
0010
0000
0001
0000
0100
0010
0100
0001
,  // measure 27
0100
0001
1000
0001
0100
0000
0000
0000
,  // measure 28
0001
0000
0100
0000
0010
0001
0100
0001
,  // measure 29
0100
0010
0001
1000
0001
0010
0100
0000
,  // measure 30
0100
0000
0000
0000
0010
0000
0000
0000
0100
0000
0001
0010
0100
0000
0010
0000
,  // measure 31
0001
1000
0001
0100
0001
0000
0100
0000
,  // measure 32
0001
0000
0000
0000
0100
0000
0000
0000
0010
0000
0001
0100
1000
0000
0100
0000
,  // measure 33
0001
1000
0001
0010
0100
0000
0010
0000
,  // measure 34
0000
0000
0000
0000
0001
1000
0001
0100
,  // measure 35
0010
0000
0001
0100
0001
0100
1000
0100
,  // measure 36
0001
0000
0000
0000
0000
0000
0000
0000
0100
0000
0010
0000
1000
0000
0100
0001
,  // measure 37
0010
0000
0100
0000
0001
1000
0100
0001
,  // measure 38
0010
0000
0000
0100
0010
0001
1000
0001
,  // measure 39
0100
0010
0001
1000
0001
0100
0001
0100
,  // measure 40
1000
0000
0000
0010
1000
0001
0100
0010
,  // measure 41
0001
0100
0010
0000
0001
0000
0100
0000
0001
0000
0100
0000
1000
0000
0001
0000
,  // measure 42
0100
0000
0000
0000
0010
0100
0001
0000
1000
0000
0100
0000
0001
0000
0000
0000
,  // measure 43
0000
0000
0000
0000
0010
0000
0100
0001
1000
0100
0001
0000
0100
0000
0010
0000
,  // measure 44
0000
0000
0000
0000
0001
0100
1000
0000
0001
0000
0010
0100
0001
0000
0100
0000
,  // measure 45
0000
0000
0000
0000
0100
0001
1000
0001
0010
0000
0100
0001
0010
0000
0100
0000
,  // measure 46
0000
0000
0000
0000
0100
0010
0001
0000
0100
0000
0010
0100
0001
0000
1000
0000
,  // measure 47
0000
0000
0100
0001
0010
0000
0001
0010
0100
0000
0000
0001
0000
0010
0000
0000
,  // measure 48
0000
0000
0000
0000
0100
0000
0001
0000
0010
0100
0001
0000
1000
0100
0001
0000
,  // measure 49
0100
0000
0000
0001
0000
0010
0100
0000
0010
0000
0000
0001
0000
1000
0000
0000
,  // measure 50
0000
0000
0000
0000
0001
0100
0001
0100
,  // measure 51
1000
0000
0000
0100
0001
0100
0010
0000
0001
0000
0000
1000
0000
0100
0000
0000
,  // measure 52
0000
0000
0000
0000
0000
0000
0000
0000
0001
0000
0000
0000
0100
0000
0000
0001
,  // measure 53
0010
0000
0000
0100
0000
0001
1000
0000
0100
0000
0001
1000
0000
0100
0000
0000
,  // measure 54
0010
0001
0100
1000
0001
0000
0100
0000
,  // measure 55
0010
0001
0100
0001
0100
0000
1000
0000
,  // measure 56
0010
0001
1000
0001
0100
0000
0010
0000
,  // measure 57
0001
0100
0001
0100
2000
0000
3000
0000
,  // measure 58
0001
0100
0010
0100
0001
0100
0001
0100
,  // measure 59
1000
0001
0100
0001
0200
0000
0000
0000
,  // measure 60
0300
0100
0010
0001
0100
0001
0100
0010
,  // measure 61
0001
1000
0001
0100
2000
0000
0000
0000
,  // measure 62
3000
0001
0100
0001
0100
0001
1000
0001
,  // measure 63
0100
0000
0010
0000
0100
0000
0001
0010
0100
0000
0000
0001
1000
0000
0100
0000
,  // measure 64
0010
0100
0010
0001
0100
0001
0100
0010
,  // measure 65
1000
0000
0000
0001
0000
0000
0010
0000
0100
0000
0000
0001
0000
0000
2000
0000
,  // measure 66
0000
0000
0000
0000
0000
0000
3000
0100
,  // measure 67
0001
0100
0001
0010
0200
0000
0000
0000
,  // measure 68
0000
0000
0000
0000
0300
0000
0101
0000
0000
0010
0000
0000
0010
0000
0100
0000
,  // measure 69
0001
0100
0001
0100
2000
0000
0000
0000
,  // measure 70
0000
0000
0000
0000
0000
0000
3000
1000
,  // measure 71
0100
0000
0001
0000
0100
0000
0001
0100
0010
0000
0000
0001
1000
0000
0100
0000
,  // measure 72
0002
0000
0000
0000
0000
0000
0003
0010
,  // measure 73
0010
0001
0100
0010
0000
0000
1001
0000
,  // measure 74
0000
0000
0000
0000
0001
1000
0001
0100
,  // measure 75
0010
0000
0001
0100
0001
0100
0001
0100
,  // measure 76
1000
0000
0000
0000
0000
0000
0000
0000
1000
0000
0100
0000
0001
0010
0100
0000
,  // measure 77
0001
0000
0010
0000
0100
0001
0010
0100
,  // measure 78
0001
0000
0000
0000
0001
0100
0001
1000
,  // measure 79
0100
0000
0001
0100
0010
1000
0001
0100
,  // measure 80
0001
0000
0000
0000
0000
0000
0000
0000
0100
0000
0010
0000
1000
0100
0001
0000
,  // measure 81
0001
0000
0100
0000
0010
0100
0001
0010
,  // measure 82
0100
0010
0000
0001
0000
0000
0100
0010
,  // measure 83
0100
0010
0000
0100
0001
0100
0001
0100
,  // measure 84
1000
0100
0000
0010
0000
0000
0001
0100
,  // measure 85
0010
0001
0000
0100
0010
0001
0100
0001
,  // measure 86
1000
0100
0000
0010
0000
0000
0100
0001
,  // measure 87
0100
0010
0000
1000
0100
0001
0100
0001
,  // measure 88
0010
0100
0000
0001
0000
0000
0100
0100
,  // measure 89
0010
0100
0000
0001
0100
0001
1000
0001
;
