#TITLE:every second counts;
#SUBTITLE:;
#ARTIST:Flatroom!;
#TITLETRANSLIT:;
#SUBTITLETRANSLIT:;
#ARTISTTRANSLIT:;
#GENRE:;
#CREDIT:;
#BANNER:;
#BACKGROUND:;
#LYRICSPATH:;
#CDTITLE:;
#MUSIC:EVERY SECOND COUNTS.ogg;
#OFFSET:0.000000;
#SAMPLESTART:100.059883;
#SAMPLELENGTH:12.000000;
#SELECTABLE:YES;
#BPMS:0.000000=140.000000
,306.000000=280.000000
,313.000000=140.000000
,522.000000=280.000000
,525.000000=140.000000
;
#STOPS:124.000000=0.900000,
126.000000=0.850000,
156.000000=0.900000,
170.000000=0.800000,
184.000000=0.900000,
198.000000=0.800000,
272.000000=0.900000,
274.000000=0.800000,
304.000000=0.900000,
306.000000=0.100000,
307.000000=0.100000,
308.000000=0.100000,
309.000000=0.100000,
310.000000=0.100000,
313.000000=0.100000,
432.000000=0.900000,
522.000000=0.100000,
523.000000=0.100000,
524.000000=0.050000
;
#BGCHANGES:;
#KEYSOUNDS:;
#ATTACKS:;

//---------------dance-single - ----------------
#NOTES:
     dance-single:
     :
     Hard:
     15:
     0.688905,0.928562,0.045745,0.007624,0.487952,1265.000000,1253.000000,12.000000,2.000000,0.000000,0.000000,0.688905,0.928562,0.045745,0.007624,0.487952,1265.000000,1253.000000,12.000000,2.000000,0.000000,0.000000:
// measure 0
0000
0000
0000
0000
,  // measure 1
0000
0000
0000
0000
,  // measure 2
0000
0000
0000
0000
,  // measure 3
0000
0000
0000
0000
0000
0000
0000
0000
0000
0000
0000
0000
0100
0001
0000
0000
,  // measure 4
0020
0000
0000
0000
0030
0000
0010
0001
,  // measure 5
0100
0000
0000
0001
0000
0000
0100
0000
0000
0010
0000
0000
0002
0000
0000
0000
,  // measure 6
0000
0000
0000
0000
,  // measure 7
0000
0000
0000
0000
0000
0000
0000
0000
0000
0000
0003
0000
0100
0001
0000
0000
,  // measure 8
0010
0000
0001
0010
0100
0000
0100
0001
,  // measure 9
0010
0000
0000
0001
0100
0000
0010
0000
0001
0010
0000
0000
0100
0000
0000
0000
,  // measure 10
0001
0000
0100
0010
0001
0000
0100
0000
,  // measure 11
0010
0000
0000
0000
0001
0000
0100
0000
0010
0000
0000
0000
1000
0100
0000
0000
,  // measure 12
0010
0000
0010
0100
0000
0001
0010
0100
,  // measure 13
0001
0000
0000
1000
0100
0000
0010
0000
0010
0100
0000
0000
0010
0000
0000
0000
,  // measure 14
0100
0000
0001
1000
0100
0000
0100
0000
,  // measure 15
0010
0000
0000
0000
0001
0000
0100
0000
1000
0000
0100
0001
0010
0000
0100
0000
,  // measure 16
0010
0000
0000
0100
0001
0000
0001
0100
,  // measure 17
1000
0000
0100
0000
0010
0000
0001
0100
,  // measure 18
0010
0001
0100
0010
0001
0100
0001
0100
,  // measure 19
1000
0010
0100
0100
0010
0100
0100
0010
,  // measure 20
0100
0010
0001
0100
0001
0100
0010
0100
,  // measure 21
1000
0100
0010
0001
0100
0001
0100
0010
,  // measure 22
0001
0100
0001
0100
0010
0100
0010
0100
,  // measure 23
0010
0100
0010
0100
1000
0100
0010
0100
,  // measure 24
0001
0100
0010
0001
0100
0001
0100
0001
,  // measure 25
0100
0010
0001
1000
0001
0100
0010
0001
,  // measure 26
0100
0010
0001
0100
0001
0100
0010
0001
,  // measure 27
0100
0001
0100
0010
0001
1000
0001
0100
,  // measure 28
0010
0001
0100
0001
0100
0001
0100
0010
,  // measure 29
0001
1000
0001
0100
0010
0001
0100
0001
,  // measure 30
0100
0010
0001
0100
0001
0100
1000
0100
,  // measure 31
1001
0001
0010
0000
0100
0000
0010
0100
,  // measure 32
0001
0000
0000
1000
0000
0000
0100
0000
0000
0001
0000
0000
0010
0000
0000
0000
,  // measure 33
0100
0001
1000
0001
0010
0100
0001
0100
,  // measure 34
0001
0010
0010
0001
0100
0010
0001
0100
,  // measure 35
0001
0100
0010
0001
0100
0001
0100
0010
,  // measure 36
1000
0000
0100
0001
0010
0100
0001
0100
0001
0000
0010
0000
0100
0000
0001
0000
,  // measure 37
0010
0010
0001
0100
0010
0001
0100
0001
,  // measure 38
0100
0010
0001
0100
0001
0100
0001
0100
,  // measure 39
1000
0000
0000
0000
0010
0000
0100
0000
1000
0000
0000
0001
0000
0000
0010
0000
,  // measure 40
0000
0001
0000
0000
0010
0000
0010
0000
0001
0000
0100
0000
0001
0000
0100
0000
,  // measure 41
0010
0001
0100
0001
0100
0010
0100
0001
,  // measure 42
0100
0001
1000
0100
0010
0000
0001
0100
,  // measure 43
1000
0000
0100
0010
0100
0001
1000
0001
0010
0100
0010
0000
0010
0000
0001
0000
,  // measure 44
0100
0010
0001
0100
0001
0100
1000
0001
,  // measure 45
0100
0010
0000
0000
0100
0001
0000
0000
0100
0010
0000
0000
0100
1000
0001
0100
,  // measure 46
0001
0000
0000
0000
1001
0000
0000
0000
0010
0001
0100
0010
0001
0100
1000
0000
,  // measure 47
0001
0000
0010
0000
0010
0000
0001
0000
0100
0000
0010
0000
0001
0100
0001
0100
,  // measure 48
1000
0000
0010
0000
0100
0000
0010
0000
0100
0001
0100
0010
1000
0100
0001
0100
,  // measure 49
0001
0010
0100
0010
0100
0000
1000
0000
0000
0000
0000
0000
0100
0000
0001
0000
,  // measure 50
1000
0000
0001
0100
0010
0001
0100
0000
0010
0000
0001
0000
0100
0000
1000
0000
,  // measure 51
0010
0000
0100
0000
0010
0001
1000
0001
0100
0000
0001
0000
0100
0000
0010
0000
,  // measure 52
0100
0000
0001
1000
0000
0100
0001
0000
0010
0000
0100
0000
0001
0000
1000
0000
,  // measure 53
0010
0000
0001
0100
0000
0000
0010
0100
,  // measure 54
1000
0000
0010
0001
0100
0000
0010
0001
,  // measure 55
0100
0010
0001
0100
0001
0100
0010
0001
,  // measure 56
1000
0001
0100
0010
0001
0100
0001
0100
,  // measure 57
1000
0010
0100
0010
0001
1000
0001
0100
,  // measure 58
0010
0001
0100
0001
0100
0001
0100
0001
,  // measure 59
0100
0010
0001
1000
0001
0100
0010
0001
,  // measure 60
0100
0001
0100
0010
0001
0100
0001
0100
,  // measure 61
1000
0010
0100
0010
0001
0100
0001
0100
,  // measure 62
0001
0100
0001
0100
0010
0001
0100
0001
,  // measure 63
0100
0010
0001
0100
0001
0100
0010
0001
,  // measure 64
1000
0001
0100
0010
0001
0100
0001
1000
,  // measure 65
0100
0010
0001
1000
0001
0100
0010
0001
,  // measure 66
0100
0001
0100
0010
0001
0100
0001
0100
,  // measure 67
1000
0001
0100
0010
0001
0100
0001
0100
,  // measure 68
1001
0100
0010
0000
0100
0000
0001
0100
,  // measure 69
1000
0000
0000
0001
0000
0000
0100
0000
0000
0010
0000
0000
0001
0000
0000
0000
,  // measure 70
0010
0001
0100
0010
0001
0100
0001
0100
,  // measure 71
1000
0010
0100
0010
0001
0100
0001
0100
,  // measure 72
1000
0010
0001
0100
0001
0100
0010
0001
,  // measure 73
1000
0000
0001
0000
0100
0000
0010
0000
0010
0001
0100
0010
1000
0100
0010
0100
,  // measure 74
0001
0100
0010
0100
0001
0100
0010
0001
,  // measure 75
0100
0001
0100
0010
0001
0100
0001
0100
,  // measure 76
1000
0000
0001
0100
1010
0000
0110
0000
,  // measure 77
0101
1001
0101
0100
,  // measure 78
0000
0000
0000
0100
0001
0100
0001
0010
,  // measure 79
0100
0010
0100
0010
0001
0100
0001
0100
,  // measure 80
1000
0000
0100
0001
0100
0001
0010
0100
,  // measure 81
0001
0000
0010
0000
0001
0100
0010
0001
0100
0010
0100
0001
1000
0001
0010
0100
,  // measure 82
0001
0100
0010
0100
0001
0100
0001
0100
,  // measure 83
0010
0001
0100
0001
0100
0010
0011
0000
,  // measure 84
1001
0000
0000
0000
0000
0000
0100
0010
,  // measure 85
0001
0000
0000
0100
0000
0000
0010
0000
0000
0001
0000
0000
1000
0000
0000
0000
,  // measure 86
0100
0000
0001
0100
0010
0001
0100
0010
,  // measure 87
0100
0000
0001
0100
0001
0100
1000
0000
,  // measure 88
0010
0000
0000
0000
0000
0000
0001
0100
,  // measure 89
1000
0000
0000
0010
0000
0000
0100
0000
,  // measure 90
0010
0001
0100
0001
0100
0001
0100
0010
,  // measure 91
0001
0100
0001
0100
0001
0100
0001
0100
,  // measure 92
1000
0000
0100
0000
0010
0000
0001
0100
,  // measure 93
0010
0001
0100
0010
0001
0100
1000
0000
,  // measure 94
0100
0000
0100
0000
0010
0000
0001
0100
,  // measure 95
0010
0000
0100
0000
0001
0000
0100
0000
0001
0010
0100
0001
1000
0010
0100
0000
,  // measure 96
0001
0000
0100
0000
0010
0000
0001
0100
,  // measure 97
1000
0000
0100
0000
0010
0000
0000
0000
0100
0001
1000
0100
0001
0010
0100
0001
,  // measure 98
0010
0000
0100
0001
0010
0000
0100
0000
,  // measure 99
0010
0000
0001
0000
0100
0000
0001
0000
0100
0000
0010
0000
1000
0001
1000
0001
,  // measure 100
1000
0000
0000
0000
0100
0001
1000
0100
0001
0000
0100
0000
0010
0100
0001
0100
,  // measure 101
0001
0000
0100
0001
1000
0010
0100
0000
0001
0000
0100
0010
0001
0100
0001
0100
,  // measure 102
1000
0000
0010
0000
0100
0001
1000
0001
0010
0000
0100
0000
1000
0000
0001
0000
,  // measure 103
0010
0000
0100
0001
1000
0010
0100
0000
0001
0010
0100
0001
1000
0001
0010
0100
,  // measure 104
0001
0000
0010
0000
0100
0010
0001
0100
1000
0000
0100
0000
0001
0000
0100
0000
,  // measure 105
0001
0000
1000
0100
0001
0010
0100
0000
0001
0000
0010
0000
0001
0000
0100
0000
,  // measure 106
1000
0000
0100
0000
0010
0001
1000
0001
0100
0000
0010
0000
0001
0000
0100
0000
,  // measure 107
0010
0000
0100
0001
0100
0001
0010
0000
0001
0000
0100
0000
0010
0100
0001
0000
,  // measure 108
1000
0000
0000
0000
0010
0100
0010
0100
0010
0000
0100
0000
0001
0000
1000
0000
,  // measure 109
0100
0001
0100
0001
0100
0001
0100
0001
0010
0000
0010
0000
0001
0000
0100
0000
,  // measure 110
0010
0001
0100
0010
0001
0100
0001
0100
1000
0100
0001
0100
0010
0001
1000
0001
,  // measure 111
0100
0001
0100
0010
0001
1000
0001
0100
1000
0000
0001
0000
0100
0000
0010
0000
,  // measure 112
0001
0000
0100
0000
0001
0000
0100
0000
1000
0100
0001
1000
0001
0000
0010
0000
,  // measure 113
0100
0010
0001
0100
0001
0100
0001
1000
0100
0000
0010
0000
0001
0000
0100
0000
,  // measure 114
0001
0100
0001
0100
1000
0000
0100
0000
,  // measure 115
0010
0001
1000
0001
0100
0010
0100
0000
0010
0000
0001
0000
0100
0000
0001
0000
,  // measure 116
0100
0000
0001
0000
0100
0000
0010
0000
0001
0100
0001
0100
0010
0001
1000
0001
,  // measure 117
0100
0001
0100
0010
0001
1000
0001
0100
1000
0000
0100
0000
0010
0000
0001
0000
,  // measure 118
0100
0000
0001
0000
0100
0000
0010
0000
1000
0000
0100
0001
0100
0001
0010
0000
,  // measure 119
0100
0000
0010
0000
0001
0000
0100
0000
1000
0000
0010
0000
0100
0001
0100
0001
,  // measure 120
0010
0000
0010
0000
0100
0001
1000
0001
0010
0000
0010
0000
0001
0010
0100
0001
,  // measure 121
0010
0001
1000
0001
0100
0010
0001
0100
,  // measure 122
0010
1000
0001
0000
0100
0000
0010
0000
1000
0000
0100
0001
0010
0100
0001
0000
,  // measure 123
0010
0001
0100
0010
0001
0100
0001
1000
0100
0000
0010
0000
0001
0000
0100
0000
,  // measure 124
0010
0000
0100
0001
0010
0001
0100
0010
0100
0000
0010
0100
0001
1000
0001
0010
,  // measure 125
0100
0001
0100
0010
0001
0100
0001
1000
0100
0000
0001
0000
0100
0000
0010
0000
,  // measure 126
0100
0000
0001
0100
0001
0100
0001
1000
0100
0000
0010
0100
0001
1000
0001
0000
,  // measure 127
0100
0000
0010
0000
0001
0000
0100
0000
0001
0000
0100
0000
0010
0000
0001
0100
,  // measure 128
0001
0100
0001
0100
0001
0100
0001
0100
1000
0000
0100
0000
1000
0001
0010
0100
,  // measure 129
0001
1000
0001
0010
0100
0001
1000
0001
1000
0000
0001
0000
0100
0000
0010
0000
,  // measure 130
0100
0001
0100
0010
0001
1000
0001
0100
1000
0000
0000
0000
0101
0000
0000
0000
,  // measure 131
1001
0000
0000
0000
0100
0000
0010
0000
0100
0000
0001
0000
1000
0100
0010
0001
,  // measure 132
0100
0001
0100
0010
0001
1000
0001
0100
1000
0001
0100
0010
0100
0010
0001
1000
,  // measure 133
0001
0100
0010
0001
0100
0001
0100
0010
0100
0001
0100
0001
0100
0010
0100
1000
,  // measure 134
0010
0100
0001
0100
0010
0100
0001
0100
0001
0100
0010
0100
0001
0100
1000
0100
,  // measure 135
0010
0100
0001
0010
0100
0001
0010
0100
0010
0001
1000
0001
0100
0010
0001
0100
,  // measure 136
0001
0100
0010
0001
0100
0001
0100
0010
0001
0100
1000
0010
0100
0001
0100
0001
,  // measure 137
0100
0010
0001
0100
0001
0100
0010
0001
0100
0001
0100
0010
0001
1000
0001
0100
,  // measure 138
0010
0001
0100
0001
0100
0010
0100
0001
0100
0001
0100
0001
0100
0010
0001
1000
,  // measure 139
0001
0100
0010
0001
0100
0001
0100
0010
0100
0001
0100
0001
0100
0000
0000
0000
,  // measure 140
0001
0000
0000
0000
0100
0000
0000
0000
0010
0000
0000
0000
1000
0100
0001
0100
,  // measure 141
0001
0100
0001
0010
0100
0001
0100
0010
0001
1000
0001
0100
1000
0000
0000
0000
,  // measure 142
0100
0000
0001
0000
0010
0000
0100
0001
1000
0000
0010
0000
0100
0000
0000
0000
,  // measure 143
0010
0000
0000
0000
0001
0100
0001
0100
1000
0000
0001
0000
0010
0000
0000
0000
,  // measure 144
0100
0000
0000
0000
0001
0000
0000
0000
0010
0000
0000
0000
0100
0000
0001
1000
,  // measure 145
0100
0000
0001
0010
0100
0001
0010
0100
0001
0100
0001
1000
0100
0000
0000
0000
,  // measure 146
0010
0000
0100
0000
0001
0000
1000
0100
0001
0000
0010
0000
0001
0000
0000
0000
,  // measure 147
0100
0000
0000
0000
0010
0001
0100
0001
0100
0000
1000
0000
0000
0000
0000
0000
;
