#VERSION:0.83;
#TITLE:eurosummer;
#SUBTITLE:;
#ARTIST:Zara Larson;
#TITLETRANSLIT:;
#SUBTITLETRANSLIT:;
#ARTISTTRANSLIT:;
#GENRE:;
#ORIGIN:;
#CREDIT:;
#BANNER:;
#BACKGROUND:;
#PREVIEWVID:;
#JACKET:;
#CDIMAGE:;
#DISCIMAGE:;
#LYRICSPATH:;
#CDTITLE:;
#MUSIC:Zara Larsson - Eurosummer (Official Audio).ogg;
#OFFSET:0.000000;
#SAMPLESTART:100.059883;
#SAMPLELENGTH:12.000000;
#SELECTABLE:YES;
#BPMS:0.000=122.000;
#STOPS:0.000=0.500;
#DELAYS:;
#WARPS:;
#TIMESIGNATURES:0.000=4=4;
#TICKCOUNTS:0.000=4;
#COMBOS:0.000=1;
#SPEEDS:0.000=1.000=0.000=0;
#SCROLLS:0.000=1.000;
#FAKES:;
#LABELS:0.000=Song Start;
#BGCHANGES:;
#KEYSOUNDS:;
#ATTACKS:
;

//---------------dance-single - ----------------
#NOTEDATA:;
#CHARTNAME:;
#STEPSTYPE:dance-single;
#DESCRIPTION:;
#CHARTSTYLE:;
#DIFFICULTY:Hard;
#METER:11;
#RADARVALUES:0.375011,0.478482,0.017195,0.063048,0.209204,458.000000,455.000000,3.000000,11.000000,0.000000,0.000000,0.000000,0.000000,0.000000,0.375011,0.478482,0.017195,0.063048,0.209204,458.000000,455.000000,3.000000,11.000000,0.000000,0.000000,0.000000,0.000000,0.000000;
#CREDIT:;
#NOTES:
// measure 0
0000
0000
0000
0000
,  // measure 1
0000
0000
0000
0000
,  // measure 2
0100
0000
0000
0000
0010
0000
0000
0000
0001
0000
0100
0000
0010
0000
0001
0100
,  // measure 3
1000
0000
0000
0000
0100
0001
1000
0000
0100
0000
0100
0000
0010
0000
0001
1000
,  // measure 4
0100
0000
0000
0000
0010
0000
0000
0000
0001
0000
0100
0000
0010
0001
0100
0000
,  // measure 5
0001
0000
0100
0000
0010
0000
0100
0001
,  // measure 6
0000
0000
0000
1000
0000
0100
0001
0000
0010
0000
0000
0000
0010
0000
0100
0000
,  // measure 7
0000
0000
0000
0100
0000
0001
1000
0000
0100
0000
0000
0000
0100
0000
0001
0000
,  // measure 8
0000
0000
0010
1000
0000
0100
0001
0000
0200
0000
0000
0000
0000
0000
0000
0000
,  // measure 9
0000
0000
0000
0000
0300
0000
0100
0001
,  // measure 10
0000
0000
0000
0100
0000
0001
0010
0000
0100
0000
0000
0000
0010
0000
0100
0000
,  // measure 11
0000
0000
0000
0000
0000
0000
0000
0000
0000
0000
0100
0000
0000
0000
0000
0001
0000
0000
0010
0000
0000
0000
0000
0000
0010
0000
0000
0000
0000
0000
0000
0000
0000
0000
0000
0000
0100
0000
0000
0000
0000
0000
0001
0000
0000
0000
0000
0000
,  // measure 12
0000
0000
1000
0100
0000
0001
0010
0000
0200
0000
0000
0000
0000
0000
0000
0000
,  // measure 13
0000
0000
0000
0000
0300
0000
0001
0100
,  // measure 14
0000
0000
0000
0100
0000
0000
0010
0000
0001
0000
0000
1000
0000
0100
0001
0000
,  // measure 15
0000
0000
0000
0100
0000
0000
0001
0000
1000
0000
0000
0100
0000
0000
0001
0000
,  // measure 16
0000
0000
0000
0100
0000
0000
0001
0000
0010
0000
0100
0001
0000
0000
1000
0000
,  // measure 17
0000
0100
0001
0000
0000
0000
1001
0000
,  // measure 18
0000
0000
0100
0000
0000
0000
0010
0000
0100
0000
0000
0001
0000
0010
0100
0000
,  // measure 19
0000
0000
0000
0010
0000
0000
0100
0000
0001
0000
0000
1000
0000
0000
0100
0000
,  // measure 20
0000
0000
0000
0000
0000
0000
0000
0000
0100
0000
0001
1000
0000
0000
0100
0000
,  // measure 21
0000
0010
0200
0000
0000
0000
0000
0000
,  // measure 22
0300
0010
0100
0001
,  // measure 23
0001
0100
0001
0100
,  // measure 24
0000
1100
0010
0100
,  // measure 25
0010
0100
0010
0110
,  // measure 26
0000
0001
0100
0001
,  // measure 27
0100
0001
0100
1000
,  // measure 28
0000
0010
0010
0100
,  // measure 29
0001
0000
0000
0000
0100
0000
0000
0000
0001
0000
0010
0000
0100
0010
0100
0000
,  // measure 30
0010
0000
0000
0000
0001
0000
0000
0000
0001
0000
0100
0000
0010
0000
1000
0001
,  // measure 31
0100
0000
0000
0000
0010
0100
0001
0000
1000
0000
0100
0000
0010
0000
0001
1000
,  // measure 32
0100
0000
0000
0000
0100
0000
0000
0000
0010
0000
0100
0000
0001
0100
1000
0000
,  // measure 33
0100
0001
0100
1000
,  // measure 34
0100
0000
0000
0000
0010
0000
0000
0000
0001
0000
0100
0000
0010
0000
0001
0100
,  // measure 35
1000
0000
0000
0000
0100
0001
1000
0000
0100
0000
0001
0000
0010
0000
0001
0100
,  // measure 36
0010
0000
0000
0000
0010
0000
0000
0000
0100
0000
0001
0000
1000
0100
0001
0000
,  // measure 37
0100
0010
0001
1000
,  // measure 38
0000
0000
0000
0100
0000
0001
0010
0000
0100
0000
0000
0000
0010
0000
0100
0000
,  // measure 39
0000
0000
0000
0010
0000
0100
0001
0000
0010
0000
0000
0000
0001
0000
0100
0000
,  // measure 40
0000
0000
0000
0100
0000
0001
1000
0000
0200
0000
0000
0000
0000
0000
0000
0000
,  // measure 41
0000
0000
0000
0000
0300
0000
0100
1000
,  // measure 42
0100
0000
0001
0000
1000
0000
0100
0001
0000
0000
0000
0000
0001
0000
0100
0000
,  // measure 43
0001
0000
0100
0000
0010
0000
0001
0100
0000
0000
0000
0000
0001
0000
0100
0000
,  // measure 44
1000
0000
0100
0000
0001
0000
0010
0100
0000
0000
0000
0000
0001
0000
0010
0000
,  // measure 45
0100
0000
0010
0001
0100
0000
0001
0010
0000
0000
0100
0000
0001
0000
0010
0000
,  // measure 46
0000
0001
0100
0001
,  // measure 47
0100
0001
1000
0100
,  // measure 48
0000
0001
0100
0010
,  // measure 49
0001
1000
0001
0100
,  // measure 50
0000
0100
0010
0001
,  // measure 51
0100
0001
0100
1000
,  // measure 52
0000
0001
0100
0010
,  // measure 53
0001
0000
0000
0000
1000
0000
0000
0000
0001
0000
0010
0000
0100
0000
0001
0010
,  // measure 54
0200
0000
0000
0300
,  // measure 55
0020
0000
0000
0030
,  // measure 56
1000
0000
0100
0001
0000
0000
0100
0010
,  // measure 57
0000
0200
0000
0000
0000
0000
0300
0000
,  // measure 58
0020
0000
0000
0030
,  // measure 59
2000
0000
0000
3000
,  // measure 60
0001
0000
0100
0000
0010
0001
0100
0002
,  // measure 61
0000
0000
0000
0003
,  // measure 62
0100
0000
0010
0000
0001
0100
0001
0100
,  // measure 63
1000
0000
0010
0000
0001
1000
0001
0100
,  // measure 64
1000
0000
0010
0000
0001
0100
0001
0100
,  // measure 65
2000
0000
0000
3000
,  // measure 66
0100
0000
0010
0000
0001
0100
0001
0100
,  // measure 67
1000
0000
0001
0000
0100
0010
0100
0001
,  // measure 68
1000
0000
0001
0000
0100
0010
0100
0001
,  // measure 69
0001
0010
0100
0001
1000
0001
0010
0100
,  // measure 70
0100
0000
0000
0000
0010
0000
0000
0000
0100
0000
0001
0000
1000
0000
0001
0100
,  // measure 71
0010
0000
0000
0000
1000
0100
0001
0000
0010
0000
0100
0000
0001
0000
1000
0100
,  // measure 72
0001
0000
0000
0000
0010
0000
0000
0000
0100
0000
0010
0000
0001
1000
0100
0000
,  // measure 73
0100
0010
0100
0001
,  // measure 74
0100
0000
0000
0000
0010
0000
0000
0000
0001
0000
0100
0000
0010
0000
0001
0100
,  // measure 75
1000
0000
0000
0000
0100
0001
0010
0000
0100
0000
0001
0000
0010
0000
0100
0001
,  // measure 76
1000
0000
0000
0000
0100
0000
0000
0000
0010
0000
0100
0000
0001
0010
0100
0000
,  // measure 77
0010
0001
1000
0001
,  // measure 78
0100
0000
0000
0000
0010
0000
0000
0000
0100
0000
0001
0000
1000
0000
0001
0100
,  // measure 79
0010
0000
0000
0000
0100
0010
0001
0000
1000
0000
0100
0000
0001
0000
0010
0100
,  // measure 80
0001
0000
0000
0000
1000
0000
0000
0000
0100
0000
0001
0000
0010
0001
0100
0000
,  // measure 81
0010
0001
0100
1000
,  // measure 82
0100
0000
0000
0000
0010
0000
0000
0000
0100
0000
0001
0000
0010
0000
0001
0100
,  // measure 83
1000
0000
0000
0000
0100
0001
1000
0000
0100
0000
0001
0000
0010
0000
0100
0001
,  // measure 84
0010
0000
0000
0000
1000
0000
0000
0000
0100
0000
0001
0000
0010
0100
0001
0000
,  // measure 85
1000
1000
0001
0100
,  // measure 86
0000
0000
0100
0001
0000
0010
0100
0000
0001
0000
0010
0100
0000
0010
0100
0000
,  // measure 87
0010
0000
0001
0100
0000
0010
0001
0000
0100
0000
0010
0001
0000
1000
0100
0000
;
