#VERSION:0.83;
#TITLE:electric circus;
#SUBTITLE:;
#ARTIST:Nelly Furtado, Boi 1DA, & Cannada Soccer;
#TITLETRANSLIT:;
#SUBTITLETRANSLIT:;
#ARTISTTRANSLIT:;
#GENRE:;
#ORIGIN:;
#CREDIT:;
#BANNER:;
#BACKGROUND:;
#PREVIEWVID:;
#JACKET:;
#CDIMAGE:;
#DISCIMAGE:;
#LYRICSPATH:;
#CDTITLE:;
#MUSIC:ELECTRIC CIRCUS.ogg;
#OFFSET:0.000000;
#SAMPLESTART:100.059883;
#SAMPLELENGTH:12.000000;
#SELECTABLE:YES;
#BPMS:0.000=130.000;
#STOPS:;
#DELAYS:;
#WARPS:;
#TIMESIGNATURES:0.000=4=4;
#TICKCOUNTS:0.000=4;
#COMBOS:0.000=1;
#SPEEDS:0.000=1.000=0.000=0;
#SCROLLS:0.000=1.000;
#FAKES:;
#LABELS:0.000=Song Start;
#BGCHANGES:;
#KEYSOUNDS:;
#ATTACKS:
;

//---------------dance-single - ----------------
#NOTEDATA:;
#CHARTNAME:;
#STEPSTYPE:dance-single;
#DESCRIPTION:;
#CHARTSTYLE:;
#DIFFICULTY:Hard;
#METER:11;
#RADARVALUES:0.381113,0.508697,0.000000,0.114744,0.102791,558.000000,558.000000,0.000000,24.000000,0.000000,0.000000,0.000000,0.000000,0.000000,0.381113,0.508697,0.000000,0.114744,0.102791,558.000000,558.000000,0.000000,24.000000,0.000000,0.000000,0.000000,0.000000,0.000000;
#CREDIT:;
#NOTES:
// measure 0
0000
0000
0000
0000
,  // measure 1
0000
0000
0000
0000
,  // measure 2
1000
0000
0000
0001
0000
0000
0010
0000
,  // measure 3
0000
0100
0000
0000
0100
0000
0010
0200
,  // measure 4
0000
0000
0000
0000
,  // measure 5
0000
0000
0300
0001
,  // measure 6
0010
0000
0000
0010
0000
0000
0100
0000
,  // measure 7
0000
0001
0000
0000
0010
0000
0001
0100
,  // measure 8
0000
0010
0000
0100
0001
0000
0001
0010
,  // measure 9
0000
0100
0000
0010
0100
0001
0100
1000
,  // measure 10
0000
0010
0000
0001
0000
0100
0000
1000
,  // measure 11
0000
0000
0000
0100
0001
1000
0001
0010
,  // measure 12
0000
0010
0000
0001
0100
0000
0010
0100
,  // measure 13
0000
0010
0000
0001
0100
0001
0100
1000
,  // measure 14
0000
1000
0000
0001
0000
0100
0000
0010
,  // measure 15
0000
0000
0000
0001
0100
0001
1000
0100
,  // measure 16
0000
0001
0100
1000
0001
0000
0000
0000
,  // measure 17
0000
0010
0001
0100
0001
1000
0100
0000
,  // measure 18
0100
0001
0020
0000
0000
0000
0000
0000
,  // measure 19
0000
0000
0000
0030
,  // measure 20
0100
0001
1000
0001
0010
0100
0000
0000
,  // measure 21
0000
0001
0100
0010
0100
0001
1000
0100
,  // measure 22
0100
0010
0001
0100
0000
1000
2000
0000
,  // measure 23
0200
0000
0000
3300
,  // measure 24
0010
0000
0001
0100
0000
0010
0002
0000
,  // measure 25
0000
0000
0000
0003
,  // measure 26
0010
0100
0010
0001
0100
0001
0100
0000
,  // measure 27
2000
0000
0000
3000
,  // measure 28
0001
0100
0010
0001
0100
0001
0200
0000
,  // measure 29
0000
0000
0000
0300
,  // measure 30
0010
0100
0010
0001
0100
0001
1000
0000
,  // measure 31
0100
0000
0000
0000
0000
0000
0001
0100
1000
0010
0100
0001
0010
0001
0010
0100
,  // measure 32
0001
0001
0000
0000
0100
0000
0000
0000
0020
0000
0000
0000
0030
0000
0000
0000
,  // measure 33
0100
0001
0020
0030
,  // measure 34
0010
0000
0000
0000
1000
0000
0000
0100
0020
0000
0000
0000
0030
0000
0000
0000
,  // measure 35
1000
0100
0001
0000
0100
0000
0010
0000
,  // measure 36
0100
0000
0000
0001
0010
0000
0000
0000
0200
0000
0000
0000
0300
0000
0000
0000
,  // measure 37
0001
1000
0200
0300
,  // measure 38
0010
0000
0000
0000
0100
0000
0000
1000
0002
0000
0000
0000
0003
0000
0000
0000
,  // measure 39
0001
0000
0000
0100
1000
0000
0000
0000
0010
0000
0000
0000
0100
0000
0000
0000
,  // measure 40
0010
0001
1000
0001
0100
0000
0010
0000
,  // measure 41
0000
1000
0001
0100
,  // measure 42
0001
0100
0001
0100
1000
0000
0010
0000
,  // measure 43
0000
0001
0100
1000
,  // measure 44
0100
0010
0001
0100
1000
0000
0100
0000
,  // measure 45
0000
0100
0010
0001
,  // measure 46
0001
1000
0001
0100
0001
0000
0100
0010
,  // measure 47
0001
1000
0001
0100
1000
0000
0100
0000
,  // measure 48
0010
0100
0000
0001
1000
0010
0010
0100
,  // measure 49
0001
0010
0001
0100
0100
1000
0000
0000
,  // measure 50
0001
0100
0010
0001
0100
0001
0100
0001
,  // measure 51
0100
1000
0010
0001
1000
0100
0000
0000
,  // measure 52
0010
0000
0001
0000
0100
0000
0001
0000
0100
0000
0010
0000
0100
0000
0001
1000
,  // measure 53
0100
0010
0001
0100
1000
0000
0000
0000
,  // measure 54
0001
0100
0010
0010
0001
0100
0001
0100
,  // measure 55
1000
0001
0100
1000
0000
0001
0100
0000
,  // measure 56
0010
0000
0100
0001
0000
0010
0002
0000
,  // measure 57
0000
0000
0000
0003
,  // measure 58
0100
0010
0001
0100
0001
0100
0200
0000
,  // measure 59
2000
0000
0000
3300
,  // measure 60
0100
0010
0001
0100
0001
1000
0200
0000
,  // measure 61
0000
0000
0000
0300
,  // measure 62
0010
0001
1000
0001
0100
0001
0100
0000
,  // measure 63
0010
0000
0000
0000
0000
0000
0100
0001
1000
0001
0010
0100
0001
1000
0001
0010
,  // measure 64
0100
0010
0000
0000
0100
0000
0000
0000
0002
0000
0000
0000
0003
0000
0000
0000
,  // measure 65
0010
0001
0200
0300
,  // measure 66
0010
0000
0000
0000
1000
0000
0000
0010
0200
0000
0000
0000
0300
0000
0000
0000
,  // measure 67
1000
0000
0000
0100
0001
0000
0000
0000
0010
0000
0000
0000
0010
0000
0000
0000
,  // measure 68
0100
0000
0000
0001
0100
0000
0000
0000
0020
0000
0000
0000
0030
0000
0000
0000
,  // measure 69
0001
0100
2000
3000
,  // measure 70
0100
0000
0000
0000
0010
0000
0000
0001
0020
0000
0000
0000
0030
0000
0000
0000
,  // measure 71
0100
0000
0000
0010
0100
0000
0000
0000
0100
0000
0000
0000
1000
0000
0000
0000
,  // measure 72
0100
0010
0001
0100
1000
0000
0010
0000
,  // measure 73
0000
0010
0001
0100
,  // measure 74
0100
0010
0001
0100
1000
0000
0100
0000
,  // measure 75
0000
0001
0100
1000
,  // measure 76
0010
0001
0100
0010
0001
0000
0010
0000
,  // measure 77
0000
0001
1000
0100
,  // measure 78
0100
0010
0001
0100
1000
0000
0100
0001
,  // measure 79
0010
0100
0001
1000
0001
0000
0010
0000
,  // measure 80
0000
0100
0000
0001
0010
0000
0000
0100
,  // measure 81
0000
0001
0000
0100
1000
0001
0010
0100
,  // measure 82
0000
0100
0000
0010
0000
0001
0000
0100
,  // measure 83
0000
0000
0000
0001
0100
0001
1000
0100
,  // measure 84
0000
0001
0000
0100
1000
0000
0000
0100
,  // measure 85
0000
0001
0000
0100
0010
0001
0100
1000
,  // measure 86
0000
0010
0000
0001
0000
0100
0000
0010
,  // measure 87
0000
0000
0000
0001
0100
0001
0100
1000
,  // measure 88
0100
0000
0000
0010
0001
0000
0000
0000
0100
0000
0000
0000
0000
0000
0000
0000
,  // measure 89
0001
0100
1000
0000
,  // measure 90
0100
0000
0000
0000
0010
0000
0000
0001
0100
0000
0000
0000
0000
0000
0000
0000
,  // measure 91
0010
0000
0000
0001
0100
0000
0000
0000
1000
0000
0000
0000
0010
0000
0000
0000
,  // measure 92
0001
0000
0000
1000
0100
0000
0000
0000
0010
0000
0000
0000
0000
0000
0000
0000
,  // measure 93
0001
0100
1000
0000
,  // measure 94
0010
0000
0000
0000
0010
0000
0000
0100
0001
0000
0000
0000
0000
0000
0000
0000
,  // measure 95
0010
0000
0000
0001
1000
0000
0000
0000
0100
0000
0000
0000
0010
0000
0000
0000
,  // measure 96
0010
0000
0000
0000
0100
0000
0001
0000
0000
0000
1000
0000
0000
0000
0001
0100
,  // measure 97
1000
0000
0000
0010
0100
0000
0001
0000
0000
0000
0010
0000
0000
0000
0000
0000
,  // measure 98
1000
0000
0000
0000
0100
0000
0001
0000
0000
0000
0010
0000
0000
0000
0100
0001
,  // measure 99
0010
0000
0000
0100
0000
0000
0001
0000
0000
0010
0000
0000
1000
0000
0100
0000
,  // measure 100
0001
0000
0010
0000
0100
0000
0001
0000
1000
0000
0001
0000
0010
0000
0100
0001
,  // measure 101
0010
0000
1000
0100
0001
0000
0010
0000
0100
0000
0010
0000
0001
0000
0100
0000
,  // measure 102
1000
0000
0100
0000
0010
0000
0100
0000
0001
0000
0100
0000
0010
0000
0001
0100
,  // measure 103
0010
0000
0001
1000
0100
0000
0001
0000
0100
0000
0001
0000
0010
0000
0001
0000
,  // measure 104
0001
0100
0010
0000
0001
0000
0100
0000
,  // measure 105
0100
0001
0100
0001
1000
0001
0010
0100
,  // measure 106
0001
0000
0100
0000
0001
0000
0100
0000
0001
0000
0100
0000
0010
0000
0001
0100
,  // measure 107
1000
0000
0100
0001
0010
0000
0001
0000
1000
0000
0001
0000
0100
0000
0010
0000
,  // measure 108
0001
0000
0100
0000
0001
0000
0100
0000
2000
0000
0000
0000
3000
0000
0010
0001
,  // measure 109
0100
0000
0010
0100
0001
0000
0100
0000
0010
0000
0100
0000
0100
0000
0100
0000
,  // measure 110
1000
0000
0010
0000
0001
0000
0100
0000
0001
0000
0100
0000
0010
0000
0001
0100
,  // measure 111
1000
0000
0001
0010
0100
0000
0010
0000
0001
0000
0100
0000
0001
0000
0100
0000
,  // measure 112
1000
0000
0000
0000
;
