#VERSION:0.83;
#TITLE:earth is turning;
#SUBTITLE:;
#ARTIST:Horsegiirl;
#TITLETRANSLIT:;
#SUBTITLETRANSLIT:;
#ARTISTTRANSLIT:;
#GENRE:;
#ORIGIN:;
#CREDIT:;
#BANNER:;
#BACKGROUND:;
#PREVIEWVID:;
#JACKET:;
#CDIMAGE:;
#DISCIMAGE:;
#LYRICSPATH:;
#CDTITLE:;
#MUSIC:horsegiirL - earth is turning (Official Visualizer).ogg;
#OFFSET:0.000000;
#SAMPLESTART:100.059883;
#SAMPLELENGTH:12.000000;
#SELECTABLE:YES;
#BPMS:0.000=155.000;
#STOPS:0.000=0.225;
#DELAYS:;
#WARPS:;
#TIMESIGNATURES:0.000=4=4;
#TICKCOUNTS:0.000=4;
#COMBOS:0.000=1;
#SPEEDS:0.000=1.000=0.000=0;
#SCROLLS:0.000=1.000;
#FAKES:;
#LABELS:0.000=Song Start;
#BGCHANGES:;
#KEYSOUNDS:;
#ATTACKS:
;

//---------------dance-single - ----------------
#NOTEDATA:;
#CHARTNAME:;
#STEPSTYPE:dance-single;
#DESCRIPTION:;
#CHARTSTYLE:;
#DIFFICULTY:Hard;
#METER:14;
#RADARVALUES:0.592351,0.813410,0.031073,0.086313,0.712942,1201.000000,1192.000000,9.000000,25.000000,0.000000,0.000000,0.000000,0.000000,0.000000,0.592351,0.813410,0.031073,0.086313,0.712942,1201.000000,1192.000000,9.000000,25.000000,0.000000,0.000000,0.000000,0.000000,0.000000;
#CREDIT:;
#NOTES:
// measure 0
0000
0000
0000
0000
,  // measure 1
0000
0000
0000
0000
,  // measure 2
0000
0000
0000
0000
,  // measure 3
0000
0000
0000
0000
,  // measure 4
0000
0000
0000
0000
,  // measure 5
0000
0000
0000
0000
,  // measure 6
0000
0000
0000
0000
,  // measure 7
0000
0000
0000
0000
0000
0000
0000
0100
,  // measure 8
0001
0010
0100
0001
1000
0001
0010
0100
,  // measure 9
0001
0100
0010
0001
0100
0001
0100
0010
,  // measure 10
0001
0100
0001
0100
0001
1000
0010
0100
,  // measure 11
0010
0100
0010
0100
0010
0100
1000
0100
,  // measure 12
0010
0100
0010
0001
0100
0001
0100
0010
,  // measure 13
0001
0100
0001
0100
0010
0001
0100
0001
,  // measure 14
0100
0010
0001
1000
0001
0100
0010
0100
,  // measure 15
0010
0100
0000
0001
0000
0100
0000
0001
,  // measure 16
0100
0010
0100
0010
0001
0100
0001
0100
,  // measure 17
1000
0010
0001
1000
0001
0100
0010
0001
,  // measure 18
0100
0001
0100
0010
0001
0100
0001
0100
,  // measure 19
0010
0001
0100
0001
0100
0010
0001
1000
,  // measure 20
0001
0100
0010
0001
0100
0001
0100
0010
,  // measure 21
0001
0100
0001
0100
0010
0001
0100
0001
,  // measure 22
0100
1000
0100
0010
0001
0100
0001
0100
,  // measure 23
0010
0001
0100
0001
0100
0010
0100
0001
,  // measure 24
0200
0000
0000
0300
,  // measure 25
2000
0000
0000
3000
,  // measure 26
0001
0200
0000
0000
0000
0000
0000
0000
,  // measure 27
0000
0000
0000
0300
,  // measure 28
0010
0200
0000
0000
0000
0000
0300
0000
,  // measure 29
2000
0000
0000
0000
0000
0000
3000
0100
,  // measure 30
0002
0000
0000
0000
,  // measure 31
0000
0000
0000
0000
0000
0000
0003
0100
,  // measure 32
0001
0020
0000
0000
0000
0000
0000
0030
,  // measure 33
2000
0000
0000
3000
,  // measure 34
0001
0200
0000
0000
0000
0000
0000
0000
,  // measure 35
0000
0000
0000
0300
,  // measure 36
0001
0200
0000
0000
0000
0000
0300
0000
,  // measure 37
0100
0002
0000
0000
0000
0000
0003
0000
,  // measure 38
0110
0001
0000
0000
0110
0000
0000
0000
,  // measure 39
0110
0110
0101
0110
,  // measure 40
1000
0000
0100
0000
0010
0100
0000
0001
0010
0000
0100
0000
0001
1000
0000
0100
,  // measure 41
0001
0100
0010
0000
0100
0010
0000
0100
0001
0000
0001
0000
0100
0010
0000
0100
,  // measure 42
0001
0100
1000
0000
0100
0010
0000
0001
0100
0010
0100
0000
0001
1000
0000
0100
,  // measure 43
0001
0010
0100
0000
0001
1000
0000
0100
0001
0100
0010
0000
0100
1000
0000
0001
,  // measure 44
0100
0010
0100
0000
0001
1000
0000
0100
0001
0010
0100
0000
0001
0010
0000
0100
,  // measure 45
0001
1000
0100
0000
0100
0010
0000
0001
0200
0000
0000
0000
0300
0000
0000
0000
,  // measure 46
0010
0100
0001
0000
1000
0100
0000
0001
0010
0001
0100
0000
0010
0100
0000
0001
,  // measure 47
0010
1000
0100
0000
0001
0010
0000
0100
0001
0100
0010
0000
0100
0001
0000
0010
,  // measure 48
0100
0001
0010
0000
0100
0001
0000
0010
0100
0010
0100
0000
0001
1000
0000
0100
,  // measure 49
0001
0010
0100
0000
0010
0100
0000
0010
0100
0001
1000
0000
0100
0001
0000
0010
,  // measure 50
0100
0010
0100
0000
0001
1000
0000
0100
0001
0100
0010
0000
0100
1000
0000
0001
,  // measure 51
0100
0010
0100
0000
0001
1000
0000
0100
0001
0010
0100
0000
0001
0100
0000
0010
,  // measure 52
0001
0100
0010
0000
0100
0001
0000
1000
0100
0010
0001
0000
0100
1000
0000
0001
,  // measure 53
0100
0010
0100
0000
0001
0010
0000
0100
0001
0010
0100
0000
0010
0001
0000
1000
,  // measure 54
0100
0010
0100
0000
0001
1000
0000
0100
0001
0100
0010
0000
1000
0100
0000
0001
,  // measure 55
0010
0100
0010
0000
0100
0000
0000
0000
0001
1000
0100
0001
0100
0001
0010
0100
,  // measure 56
0001
0010
0100
0000
0001
1000
0000
0100
0001
0010
0100
0001
0100
0010
0000
0010
,  // measure 57
0100
0001
1000
0000
0100
0010
0000
0100
0001
0100
0001
0000
0010
0100
0000
0001
,  // measure 58
1000
0100
0010
0000
0001
0100
0000
0010
0100
0001
1000
0000
0100
0001
0000
0010
,  // measure 59
0100
0001
0010
0000
0100
1000
0000
0100
0001
0010
0100
0000
0010
0100
0000
0001
,  // measure 60
0100
0001
0010
0000
1000
0100
0000
0001
0100
0001
0100
0000
0010
0100
0000
0001
,  // measure 61
1000
0100
0001
0000
0010
0100
0000
0001
1000
0100
0001
0000
0010
0100
0000
0001
,  // measure 62
0100
0001
0010
0000
0001
0010
0000
0100
0010
0001
0100
0000
0001
0100
0000
0010
,  // measure 63
0001
0100
1000
0000
0010
0001
0000
0100
0010
0001
0100
0000
0001
0100
0000
0010
,  // measure 64
1000
0100
0010
0000
0010
0100
0000
0001
1000
0100
0001
0000
0010
0100
0000
0001
,  // measure 65
0100
0001
0100
0000
0010
0100
0000
0010
0100
0001
1000
0000
0100
0010
0000
0100
,  // measure 66
0001
0100
0001
0000
0010
0100
0000
0001
0100
0010
0010
0000
0100
0001
0000
1000
,  // measure 67
0100
0001
0010
0000
0100
0010
0000
0100
0001
0010
0100
0000
0001
1000
0000
0100
,  // measure 68
0001
0010
0100
0000
0001
0010
0000
0100
0001
1000
0100
0000
0001
0100
0000
0010
,  // measure 69
0100
0010
0100
0000
0001
0010
1000
0100
0001
0010
0100
0000
0001
1000
0100
0001
,  // measure 70
0100
0001
0100
0010
0100
0010
0100
0010
0001
1000
0001
0100
0010
0001
0100
0001
,  // measure 71
1000
0200
0000
0000
0000
0300
0000
0100
,  // measure 72
0002
0000
0000
0000
,  // measure 73
0000
0000
0000
0000
,  // measure 74
0000
0000
0000
0000
,  // measure 75
0000
0000
0000
0000
0000
0000
0003
1000
,  // measure 76
0200
0000
0000
0000
,  // measure 77
0000
0000
0000
0000
,  // measure 78
0000
0000
0000
0000
,  // measure 79
0000
0000
0000
0000
0000
0000
0300
0100
,  // measure 80
0002
0000
0000
0000
,  // measure 81
0000
0000
0000
0000
,  // measure 82
0000
0000
0000
0000
,  // measure 83
0000
0000
0000
0000
0000
0000
0003
0001
,  // measure 84
0200
0000
0000
0000
,  // measure 85
0000
0000
0000
0000
,  // measure 86
0000
0000
0000
0000
,  // measure 87
0000
0000
0000
0300
,  // measure 88
0100
0010
0100
0000
0001
0010
0000
0100
0001
1000
0100
0000
0001
0100
0000
0010
,  // measure 89
0100
0010
0100
0000
0001
1000
0000
0100
0001
0100
0010
0000
0010
0100
0000
0001
,  // measure 90
0010
0100
0001
0000
1000
0100
0000
0001
0010
0100
0001
0000
1000
0100
0000
0001
,  // measure 91
0010
1000
0100
0000
0001
0010
0000
0100
0001
0100
1000
0000
0100
0001
0000
0010
,  // measure 92
0100
0001
1000
0000
0100
0001
0000
0010
0100
0010
0001
0000
0100
0010
0000
0001
,  // measure 93
0100
0010
0100
0000
0001
0100
0000
1000
0001
0100
0010
0000
0100
0001
0000
0010
,  // measure 94
0100
0001
0100
0000
0010
0100
0000
0001
1000
0100
0001
0000
0010
0100
0000
0001
,  // measure 95
0010
0100
0001
0000
0010
0100
0000
0001
1000
0100
0001
0000
0010
0100
0000
0001
,  // measure 96
0010
0100
1000
0000
0001
0010
0000
0100
0001
0010
0100
0000
1000
0100
0000
0001
,  // measure 97
0010
0100
0001
0000
0100
1000
0000
0100
0001
0010
0100
0000
0001
1000
0000
0100
,  // measure 98
0001
0010
0100
0000
0001
1000
0000
0100
0001
0010
0100
0000
0010
0100
0000
0001
,  // measure 99
1000
0100
0001
0000
0100
0010
0000
0001
0100
0010
0001
0000
0010
0001
0000
0100
,  // measure 100
1000
0010
0100
0000
0001
1000
0000
0100
0001
0010
0100
0000
0001
0100
0000
0010
,  // measure 101
0100
0010
0100
0000
0001
1000
0000
0100
0001
0010
0100
0000
0001
0100
0000
0010
,  // measure 102
0100
0001
0010
0000
0100
0001
0000
0010
0100
0001
1000
0000
0100
0010
0000
0100
,  // measure 103
0001
0010
0100
0000
0010
0100
0000
0001
1000
0100
0001
0000
0010
0100
0000
0010
,  // measure 104
0200
0000
0000
0000
0300
0001
0100
0001
,  // measure 105
0200
0000
0000
0000
0300
0010
0100
0001
,  // measure 106
0001
0000
0200
0000
0000
0000
0000
0000
0300
0000
0010
0000
0100
0000
0010
0100
,  // measure 107
0000
0110
1100
0101
,  // measure 108
0100
0000
0010
0000
0001
0000
0100
0000
0001
0000
1000
0000
0100
0000
0010
0100
,  // measure 109
0001
0000
1000
0000
0100
0000
0001
0000
0010
0000
0100
0000
0001
0000
0100
0001
,  // measure 110
0010
0000
0100
0000
0010
0000
0100
0000
0001
0000
0100
0000
0010
0000
0001
1000
,  // measure 111
0100
0001
0100
0001
0100
0010
0001
0100
,  // measure 112
0001
1000
0100
0000
0001
0100
0010
0000
0100
0001
0010
0000
0100
0001
1000
0001
,  // measure 113
0010
0001
0100
0000
0001
0010
1000
0000
0001
0100
0010
0000
0100
0001
0100
0001
,  // measure 114
0010
0100
0001
0000
0010
0001
0100
0000
0010
0100
0001
0000
0100
0010
1000
0100
,  // measure 115
0001
0010
0100
0000
0001
1000
0100
0000
0001
0100
0001
0000
0010
0100
0001
0000
,  // measure 116
0001
0100
1000
0000
0001
0100
0010
0000
0001
0100
0001
0000
0100
0010
0001
1000
,  // measure 117
0100
0010
0100
0000
0001
1000
0100
0000
0001
0100
0001
0000
0010
0100
0001
1000
,  // measure 118
0001
0100
0010
0000
0100
0010
0100
0000
0010
0001
0100
0000
0010
0100
0001
0100
,  // measure 119
1000
0010
0100
0000
0001
1000
0100
0000
0001
0100
0001
0000
0010
0100
0001
0000
,  // measure 120
0100
0000
0010
0000
0100
0000
0001
0000
1000
0000
0001
0000
0010
0000
0100
0001
,  // measure 121
0010
0000
0100
0000
0001
0000
0100
0000
0001
0000
1000
0000
0001
0000
0010
0100
,  // measure 122
0001
0000
0010
0000
0100
0000
0001
0000
1000
0000
0001
0000
0010
0000
0100
0010
,  // measure 123
0100
0100
0010
0100
0001
0100
0010
0100
,  // measure 124
1000
0000
0010
0000
0100
0000
0001
0000
1000
0000
0001
0000
0010
0000
0100
0001
,  // measure 125
0100
0000
0010
0000
0100
0000
0001
0000
1000
0000
0001
0000
0010
0000
0100
0001
,  // measure 126
0010
0000
0100
0000
0010
0000
0100
0000
0001
0000
0100
0000
0010
0000
0100
0010
,  // measure 127
0100
0010
0001
0100
0001
0100
0010
0001
1000
0001
0100
0010
0001
0100
0001
0100
,  // measure 128
2000
0100
0000
3100
,  // measure 129
0200
0010
0000
0310
,  // measure 130
1000
0000
0100
0000
0010
0000
0000
0000
0000
0000
0001
0000
0010
0000
0100
0001
,  // measure 131
0020
0100
0000
0130
,  // measure 132
1000
0000
0100
0000
0001
0000
0000
0000
0000
0000
0010
0000
0100
0000
0001
0010
,  // measure 133
0100
0010
0002
0000
0000
0000
1003
0000
,  // measure 134
0100
0020
0000
0000
0000
0000
0000
0000
,  // measure 135
0000
0000
0000
0030
,  // measure 136
1000
0100
0001
0000
0010
0100
0001
0000
1000
0100
0001
0000
0010
0100
0001
0100
,  // measure 137
0001
0010
0100
0000
0001
0100
0010
0000
0001
0100
0010
0000
0100
0001
0010
0100
,  // measure 138
0001
0010
0100
0000
1000
0100
0001
0000
0010
0100
0001
0000
1000
0100
0001
0100
,  // measure 139
0001
0100
0010
0000
0001
0100
0010
0000
0001
0100
0010
0000
0001
1000
0100
0000
,  // measure 140
0010
0100
0001
0000
1000
0100
0001
0000
0010
0100
0001
0000
1000
0100
0001
0100
,  // measure 141
0001
0010
0100
0000
0010
0100
0001
0000
1000
0100
0001
0000
0010
0100
0001
1000
,  // measure 142
0001
0010
0100
0000
0010
0001
0100
0000
0010
0001
0100
0000
0010
0100
0001
0100
,  // measure 143
1000
0010
0100
0000
0001
0100
0010
0000
0100
0001
1000
0000
0100
0001
0100
0001
,  // measure 144
0010
0100
0010
0000
1000
0100
0001
0000
0010
0100
0001
0000
1000
0100
0001
0100
,  // measure 145
0001
0010
0100
0000
0010
0100
0001
0000
1000
0100
0001
0000
0010
0100
0001
1000
,  // measure 146
0001
0010
0100
0000
0001
0100
1000
0000
0001
0100
0010
0000
0100
0010
1000
0001
,  // measure 147
0100
0010
0100
0000
0010
0100
0001
0000
1000
0100
0001
0000
0010
0100
0001
0000
,  // measure 148
1000
0100
0001
0000
0100
0010
0001
0000
1000
0100
0001
0000
0010
0100
0001
1000
,  // measure 149
0001
0010
0100
0000
0100
0010
0100
0000
0001
1000
0100
0000
0001
0100
0001
0010
,  // measure 150
0100
0001
0010
0000
0010
0001
0100
0000
0010
0100
0001
0000
1000
0100
0001
0100
,  // measure 151
0001
0010
0100
0000
0010
0001
0100
0000
1000
0100
0001
0000
0010
0100
0001
0000
,  // measure 152
0100
0000
0000
0000
;
