#TITLE:duvet;
#SUBTITLE:;
#ARTIST:SAILORR;
#TITLETRANSLIT:;
#SUBTITLETRANSLIT:;
#ARTISTTRANSLIT:;
#GENRE:;
#CREDIT:;
#BANNER:;
#BACKGROUND:;
#LYRICSPATH:;
#CDTITLE:;
#MUSIC:DUVET.ogg;
#OFFSET:0.000000;
#SAMPLESTART:100.059883;
#SAMPLELENGTH:12.000000;
#SELECTABLE:YES;
#BPMS:0.000000=87.000000
;
#STOPS:0.000000=0.300000
;
#BGCHANGES:;
#KEYSOUNDS:;
#ATTACKS:;

//---------------dance-single - ----------------
#NOTES:
     dance-single:
     :
     Hard:
     12:
     0.443006,0.461569,0.000000,0.026392,0.484950,470.000000,470.000000,0.000000,4.000000,0.000000,0.000000,0.443006,0.461569,0.000000,0.026392,0.484950,470.000000,470.000000,0.000000,4.000000,0.000000,0.000000:
// measure 0
0000
0000
0000
0000
,  // measure 1
0000
0000
0000
0000
,  // measure 2
0200
0000
0000
0000
0300
0000
0001
1000
0100
0000
0010
0000
0001
0000
0010
0100
,  // measure 3
0001
0000
1000
0000
0001
0000
0200
0000
0000
0000
0300
0000
0100
0001
1000
0000
,  // measure 4
0000
0000
0000
0000
0000
0010
0100
0001
1000
0100
0001
0000
0010
0000
0100
0000
,  // measure 5
0001
0000
0000
0001
0010
0100
0001
0000
0010
0000
0010
0000
0001
0000
1000
0000
,  // measure 6
0100
0000
0000
0100
0001
1000
0001
0100
0010
0000
0001
0100
0001
1000
0100
0001
,  // measure 7
0010
0001
0100
1000
0100
0010
0100
0000
0100
0000
0001
0000
0010
0100
0001
0000
,  // measure 8
0010
0000
0000
0000
0000
0000
0001
0100
1000
0000
0100
0000
0010
0000
0001
0100
,  // measure 9
1000
0000
0001
0000
0100
0000
1000
0000
0000
0000
0100
0000
1000
0001
0010
0000
,  // measure 10
0100
0010
0000
0000
0000
0000
0000
0000
0001
0100
1000
0000
0100
0000
0010
0100
,  // measure 11
1000
0100
0001
0000
0000
0000
0000
0000
1000
0100
0001
0100
1000
0100
0001
1000
,  // measure 12
0001
0100
0001
0000
0000
0000
0000
0000
0100
0000
0010
0000
0100
0000
0001
1000
,  // measure 13
0100
0001
0010
0000
0000
0000
0000
0000
0000
0000
0000
1000
0100
0001
0010
0000
,  // measure 14
0100
0000
0001
0000
0000
0000
0000
0000
0100
0001
1000
0000
0100
0000
0010
0100
,  // measure 15
0001
1000
0100
0000
0000
0000
0000
0000
1000
0001
0100
0010
1000
0001
0100
1000
,  // measure 16
0001
0000
0100
0000
0000
0000
0000
0000
0100
0001
1000
0100
0001
0000
0010
0000
,  // measure 17
0100
0000
0001
0000
0010
0100
0001
0000
0010
0000
0100
0001
1000
0100
0001
0000
,  // measure 18
0010
0000
0000
0000
0000
0000
0100
0001
1000
0100
0001
0000
0010
0000
0100
0001
,  // measure 19
1000
0000
0100
0001
1000
0001
0010
0000
0010
0000
0000
0000
0100
0001
1000
0000
,  // measure 20
0001
0000
0100
0000
0000
0000
0001
1000
0001
0100
1000
0000
0010
0000
1000
0001
,  // measure 21
0100
0000
0010
0001
1000
0001
0100
0000
0020
0000
0000
0000
0000
0000
0000
0000
,  // measure 22
0000
0000
0000
0000
0030
0000
0001
1000
0001
0100
0010
0000
0001
0000
0100
0010
,  // measure 23
0100
1000
0001
0000
0100
0001
1000
0100
0001
0010
0100
0000
0001
1000
0100
0000
,  // measure 24
0200
0000
0000
0000
0300
0000
0100
0001
1000
0100
0001
0000
0010
0000
0001
0100
,  // measure 25
0001
1000
0100
0000
0010
0000
1000
0001
0100
0000
0100
0000
0010
0100
0001
0000
,  // measure 26
0010
0100
0000
0000
0000
0100
0001
1000
0001
0010
0100
0010
0001
1000
0001
0100
,  // measure 27
1000
0000
0100
0010
0001
0100
0001
1000
0100
0000
0000
0000
1000
0001
0100
0000
,  // measure 28
0000
0000
0000
0000
0000
0000
0100
0000
0001
1000
0100
0001
1000
0000
0001
0100
,  // measure 29
0001
1000
0100
0010
0001
1000
0001
0100
0010
0000
0001
0100
1000
0000
0001
1000
,  // measure 30
0100
0000
0000
0000
0000
0000
0000
0000
0100
0000
1000
0000
0001
0100
0010
0100
,  // measure 31
0001
0100
1000
0000
0000
0000
0000
0000
1000
0000
0100
0001
0100
0001
1000
0010
,  // measure 32
0100
0000
0001
0000
0000
0000
0000
0000
0001
1000
0001
0100
1000
0000
0001
0000
,  // measure 33
0100
0000
0010
0000
0001
1000
0100
0000
0010
0000
0001
1000
0001
0100
1000
0000
,  // measure 34
0100
0000
0000
0000
0000
0000
0100
0001
1000
0000
0100
0000
0010
0000
0001
1000
,  // measure 35
0100
0010
0001
0100
0000
0000
0000
0000
,  // measure 36
0000
0000
0000
0000
0000
1000
0100
0001
1000
0001
0010
0000
0001
0000
0100
0000
,  // measure 37
0010
0000
0000
1000
0100
0001
1000
0000
0001
0000
1000
0000
0001
0000
0100
0000
,  // measure 38
1000
0000
0000
0100
0001
1000
0100
0000
0010
0000
0001
0100
0001
0100
0001
1000
,  // measure 39
0100
0010
0001
1000
0001
0100
1000
0000
0000
0000
0000
0000
0000
0000
0000
0000
,  // measure 40
0000
0000
0000
0000
0000
0000
1000
0100
0001
0000
0100
0000
0010
0000
0001
0100
,  // measure 41
1000
0000
0001
0000
0100
0000
1000
0000
0000
0000
0100
0000
0001
1000
0100
0000
,  // measure 42
0100
0000
0010
0000
0000
0000
0000
0000
1000
0001
0100
0000
0100
0000
1000
0100
,  // measure 43
0001
0010
0100
0000
0000
0000
0000
0000
0100
0010
0001
1000
0001
0100
0001
0100
,  // measure 44
0001
1000
0100
0000
0000
0000
0000
0000
0001
0000
0100
0000
0010
0000
0100
0001
,  // measure 45
1000
0100
0001
0000
0000
0000
0000
0000
0100
1000
0001
0000
0001
0100
0010
0000
,  // measure 46
0100
0000
0001
0000
0000
0000
0000
0000
0001
0100
1000
0000
0100
0000
0010
0001
,  // measure 47
1000
0001
0100
0000
0000
0000
0000
0000
0010
0001
1000
0001
0100
0010
0001
1000
,  // measure 48
0001
0100
1000
0000
0000
0000
0000
0000
0010
0000
0001
0000
0100
0000
0001
0100
,  // measure 49
0001
0100
1000
0000
0000
0000
0000
0000
0100
0001
1000
0000
0100
0000
0000
0000
,  // measure 50
0100
0010
0001
0100
0001
0100
0010
0001
,  // measure 51
1000
0000
0001
0000
0100
0000
0010
0000
0001
0100
0010
0000
0010
0000
0001
0000
,  // measure 52
0100
0010
0001
1000
0001
0100
0010
0001
,  // measure 53
1000
0000
0001
0000
0100
0000
0010
0000
1000
0100
0000
0001
0000
0010
0000
0000
;
