#VERSION:0.83;
#TITLE:dtmf;
#SUBTITLE:;
#ARTIST:Bad Bunny;
#TITLETRANSLIT:;
#SUBTITLETRANSLIT:;
#ARTISTTRANSLIT:;
#GENRE:;
#ORIGIN:;
#CREDIT:;
#BANNER:;
#BACKGROUND:;
#PREVIEWVID:;
#JACKET:;
#CDIMAGE:;
#DISCIMAGE:;
#LYRICSPATH:;
#CDTITLE:;
#MUSIC:BAD BUNNY - DtMF (Visualizer) DeBÍ TiRAR MáS FOToS.ogg;
#OFFSET:0.000000;
#SAMPLESTART:100.059883;
#SAMPLELENGTH:12.000000;
#SELECTABLE:YES;
#BPMS:0.000=113.500,
60.000=123.000,
64.000=112.000,
96.000=113.000,
108.000=116.000,
116.000=114.000,
128.000=113.000,
388.000=108.000;
#STOPS:0.000=0.400;
#DELAYS:;
#WARPS:;
#TIMESIGNATURES:0.000=4=4;
#TICKCOUNTS:0.000=4;
#COMBOS:0.000=1;
#SPEEDS:0.000=1.000=0.000=0;
#SCROLLS:0.000=1.000;
#FAKES:;
#LABELS:0.000=Song Start;
#BGCHANGES:;
#KEYSOUNDS:;
#ATTACKS:
;

//---------------dance-single - ----------------
#NOTEDATA:;
#CHARTNAME:;
#STEPSTYPE:dance-single;
#DESCRIPTION:;
#CHARTSTYLE:;
#DIFFICULTY:Hard;
#METER:13;
#RADARVALUES:0.509966,0.667004,0.012482,0.029124,0.867478,858.000000,855.000000,3.000000,7.000000,0.000000,0.000000,0.000000,0.000000,0.000000,0.509966,0.667004,0.012482,0.029124,0.867478,858.000000,855.000000,3.000000,7.000000,0.000000,0.000000,0.000000,0.000000,0.000000;
#CREDIT:;
#NOTES:
// measure 0
0000
0000
0000
0000
,  // measure 1
0000
0000
0000
0000
,  // measure 2
0000
0000
0000
0000
,  // measure 3
0000
0000
0000
0000
,  // measure 4
0001
0100
0010
0000
0001
0100
1000
0000
,  // measure 5
0001
0100
0010
0000
0001
0100
1000
0000
,  // measure 6
0010
0001
0100
0000
0001
0100
1000
0000
,  // measure 7
0001
0100
1000
0000
0001
0100
0010
0000
,  // measure 8
0000
0000
0000
0000
0000
0000
0001
0100
0001
0100
0001
0100
,  // measure 9
1000
0100
0010
0001
1000
0001
0100
0000
0000
0000
0000
0000
,  // measure 10
0000
0000
0000
0000
0000
0000
0010
0001
0100
0010
0001
1000
,  // measure 11
0001
0100
0001
0100
0001
0100
0001
0100
0001
0100
0001
0100
,  // measure 12
1000
0000
0000
0000
0000
0000
0100
0010
0001
0100
0001
0100
,  // measure 13
1000
0000
0000
0100
0000
0000
0000
0000
0000
0001
0000
0000
0010
0000
0000
0000
0000
0000
0100
0000
0000
0000
0000
0000
0000
0000
0000
0000
0010
0000
0000
0000
0001
0000
0000
0000
0100
0000
0000
0000
0001
0000
0000
0000
0100
0000
0000
0000
,  // measure 14
1000
0000
0000
0000
0000
0000
0000
0010
0001
0100
0001
0100
,  // measure 15
1000
0000
0000
0000
0000
0000
0100
0010
0001
0100
0001
0100
,  // measure 16
1000
0000
0000
0000
0000
0000
0100
0010
0001
0100
0001
0100
,  // measure 17
1000
0000
0000
0000
0000
0000
0100
0010
0001
0100
0001
0100
,  // measure 18
1000
0000
0000
0000
0000
0000
0100
0010
0001
0100
0001
0100
,  // measure 19
1000
0000
0000
0000
0100
0000
0000
0000
0010
0000
0000
0000
0001
0000
0000
0000
1000
0000
0000
0000
0001
0000
0000
0000
0100
0000
0000
0000
0000
0000
0010
0000
0000
0100
0000
0000
0001
0000
0000
1000
0000
0000
0001
0000
0000
0010
0000
0000
,  // measure 20
0100
0000
0000
0000
0000
0000
0000
0000
0000
0000
0000
0000
0010
0000
0000
0010
0000
0000
0000
0000
0000
0000
0000
0000
0100
0000
0000
0000
0010
0000
0000
0000
0001
0000
0000
0000
0100
0000
0000
0000
0001
0000
0000
0000
0100
0000
0000
0000
,  // measure 21
1000
0000
0000
0000
0010
0000
0000
0000
0001
0000
0000
0000
0100
0000
0000
0000
0001
0000
0000
0000
0100
0000
0000
0000
0100
0000
0000
0000
0000
0000
0000
0000
0000
0000
0000
0000
0010
0000
0000
0100
0000
0000
0001
0000
0000
0000
0000
0000
,  // measure 22
0010
0100
0001
0100
1000
0100
0000
0001
0010
0000
0000
0000
0000
0000
0000
0000
,  // measure 23
1001
0000
0000
1001
0000
0000
0000
0010
0001
1000
0001
0100
,  // measure 24
1000
0100
0010
0100
0001
0100
1000
0000
0000
0100
0010
0001
,  // measure 25
0100
0000
0000
0000
0001
0000
0000
0000
0100
0000
0000
0000
1000
0000
0000
0000
0001
0000
0000
0000
0100
0000
0000
0000
1000
0000
0000
0000
0000
0000
0000
0000
0000
0000
0000
0000
0100
0000
0000
0001
0000
0000
0000
0000
0000
0000
0000
0000
,  // measure 26
0000
0010
0001
0100
0001
0100
1000
0000
0000
0000
0010
0001
,  // measure 27
0100
0010
0001
1000
0001
0100
1000
0010
1000
0001
0000
0000
,  // measure 28
0010
0000
0000
0000
0100
0000
0010
0000
0001
0100
0000
0000
0100
0000
0010
0000
,  // measure 29
1000
0000
0000
0000
0100
0000
0000
0000
0001
0000
0000
0000
0010
0000
0000
0000
0000
0000
0000
0000
0000
0001
0000
0000
0010
0000
0000
0100
0000
0000
0000
0000
0000
0001
0000
0000
0010
0000
0000
0000
0000
0000
0000
0000
0000
0000
0000
0000
,  // measure 30
0000
0100
0010
0001
0100
0001
0100
0001
1000
0001
0100
0001
,  // measure 31
0100
0000
0000
0010
0010
0010
0010
0010
0010
0010
0010
0010
,  // measure 32
1000
0100
0010
0001
0100
0001
0100
0000
0000
1000
0000
0000
,  // measure 33
0000
0000
0010
0100
0001
0100
0010
0001
1000
0001
0100
0010
,  // measure 34
0100
0001
0000
0010
0000
0000
0000
0100
0010
1000
0100
0001
,  // measure 35
0100
0001
0010
0100
0010
0001
0100
0001
1000
0100
0000
0000
,  // measure 36
0010
0000
0000
0001
0000
0000
1000
0100
0010
0001
0010
0001
,  // measure 37
0100
0001
0010
0010
0001
0000
0010
0000
0100
1000
0010
0100
,  // measure 38
0001
0000
0000
0000
0010
0000
0000
0000
0001
0000
0000
0000
1000
0000
0000
0000
0100
0000
0000
0000
0000
0000
0000
0000
0001
0000
0000
0000
0000
0000
0000
0000
0000
0000
0000
0000
0010
0000
0000
0100
0000
0000
0000
0000
0000
0000
0000
0000
,  // measure 39
0001
0000
0010
0100
0001
0100
0001
0100
,  // measure 40
1000
0000
0000
0100
0000
0000
0010
0000
0001
0000
0000
1000
0000
0000
0100
0000
,  // measure 41
0010
0000
0000
0001
0000
0000
0100
0000
0010
0000
0001
0000
0100
0000
0010
0000
,  // measure 42
1000
0000
0000
0010
0000
0000
0100
0000
0010
0000
0000
0001
0000
0000
0100
0000
,  // measure 43
0001
0000
0000
0100
0000
0000
0010
0000
1000
0000
0000
0001
0010
0001
0100
0001
,  // measure 44
0010
0000
0000
0010
0000
0000
0100
0010
0001
0100
0001
0100
,  // measure 45
1000
0100
0010
0001
0100
0010
0001
0000
0000
0100
0000
0000
,  // measure 46
0001
0100
0010
0001
0100
0001
0100
0010
0001
0100
0001
0100
,  // measure 47
1000
0000
0100
0010
0001
0001
0100
0001
,  // measure 48
0010
0000
0000
0100
0001
0000
1000
0000
0100
0000
0000
0010
0001
0000
0010
0000
,  // measure 49
0100
0000
0000
0010
0100
0000
0001
0000
1000
0000
0100
0000
0001
0000
0010
0000
,  // measure 50
0100
0000
0000
0100
0010
0000
0001
0000
1000
0000
0000
0100
0001
0000
0010
0000
,  // measure 51
0100
0000
0000
0010
0100
0000
0001
0000
1000
0000
0000
0010
0100
0000
0001
0000
,  // measure 52
0020
0000
0000
0030
0000
0000
0010
0100
0001
1000
0001
0010
,  // measure 53
0100
0001
0100
0001
0010
0001
0200
0000
0000
2000
0000
0000
,  // measure 54
0000
0000
0000
3300
0000
0000
0010
0100
0001
1000
0001
0010
,  // measure 55
0100
0010
0001
0100
0001
0100
2000
0000
0000
0200
0000
0000
,  // measure 56
3300
0000
0000
0100
0000
0000
1000
0100
0001
1000
0010
0100
,  // measure 57
0001
0000
0100
0000
0010
0000
0001
0000
0000
0100
0000
0000
0000
0000
0010
0000
0100
0000
0001
0000
1000
0000
0001
0000
,  // measure 58
0010
0000
0000
0000
0000
0000
0000
0010
0001
0100
0001
0100
,  // measure 59
1000
0000
0000
0000
0000
0000
0000
0000
0000
0100
0000
0000
0001
0000
0000
0000
0000
0000
0010
0000
0000
0000
0000
0000
0000
0000
0000
0000
0000
0000
0000
0000
0001
0000
0000
0000
0100
0000
0000
0000
0001
0000
0000
0000
0100
0000
0000
0000
,  // measure 60
1000
0000
0000
0000
0000
0000
0000
0000
0000
1000
0100
0001
,  // measure 61
0010
0100
0010
0001
0100
0010
1000
0000
0010
0100
0001
1000
,  // measure 62
0001
0000
0000
0000
0000
0000
0000
0000
0010
0001
0100
0001
,  // measure 63
1000
0000
0000
0000
0000
0000
0000
0000
0000
0000
0000
0000
0100
0000
0000
0000
0000
0000
0000
0000
0000
0000
0000
0000
0010
0000
0000
0100
0000
0000
0010
0000
0000
0100
0000
0000
0010
0000
0000
0000
0000
0000
0100
0000
0001
0000
0000
0000
,  // measure 64
0010
0100
0001
1000
0100
0001
0010
0000
0000
0010
0000
0000
,  // measure 65
0100
0010
0001
0100
0001
0100
1000
0010
0100
0010
0001
1000
,  // measure 66
0001
0000
0000
0000
0100
0000
0000
0000
0010
0000
0000
0000
1000
0000
0000
0000
0000
0000
0000
0000
0000
0001
0000
0000
0010
0000
0000
0000
0000
0000
0000
0000
0000
0100
0000
0000
0001
0000
0000
0000
1000
0000
0000
0000
0100
0000
0000
0000
,  // measure 67
0001
0000
0000
0000
0000
0000
0000
0000
0000
0001
0000
0000
0100
0000
0000
0000
0000
0000
0000
0000
0000
0000
0000
0000
0000
0000
0000
0000
0010
0000
0000
0000
0001
0000
0000
0000
0100
0000
0000
0000
0001
0000
0000
0000
0100
0000
0000
0000
,  // measure 68
1000
0000
0000
0000
0000
0000
0000
0000
0000
0010
0000
0000
0000
0000
0000
0100
0000
0000
0001
0000
0000
0000
0000
0000
0000
0000
0000
0000
0000
0000
0000
0000
0000
0100
0000
0000
1000
0000
0000
0000
0000
0000
0001
0000
0010
0000
0000
0000
,  // measure 69
0100
0000
0000
0000
0000
0000
0000
0000
0000
0010
0000
0000
0000
0000
0000
0100
0000
0000
0001
0000
0000
0000
0000
0000
0100
0000
0000
0001
0000
0000
1000
0000
0000
0001
0000
0000
0010
0000
0000
0000
0000
0000
0100
0000
0001
0000
0000
0000
,  // measure 70
0010
0000
0000
0000
0001
0100
1000
0000
0100
0001
0010
0100
,  // measure 71
0001
0000
0000
0000
1000
0000
0000
0000
0100
0001
0100
0000
0010
0100
0001
0000
,  // measure 72
0001
0000
0100
0010
0001
0000
0001
0100
,  // measure 73
1000
0000
0000
0000
0000
0000
0010
0000
0000
0001
0000
0000
0100
0000
0000
0000
0010
0000
0100
0000
0001
0000
1000
0000
,  // measure 74
0001
0000
0100
0010
0001
0100
1000
0000
0100
0010
0001
0100
,  // measure 75
1000
0000
0010
0000
0000
0000
0010
0001
,  // measure 76
0100
0000
0001
0100
1000
0000
0010
0100
,  // measure 77
0001
0000
0000
0000
0000
0000
0010
0000
0000
0001
0000
0000
0100
0000
0000
0000
0010
0000
0001
0000
1000
0000
0001
0000
,  // measure 78
0100
0000
0010
0100
0001
1000
0001
0010
0100
0010
0001
0100
,  // measure 79
1000
0000
0010
0000
0100
0010
0001
0100
,  // measure 80
0010
0000
0000
0100
0001
0000
1000
0100
0000
0010
0100
0000
0010
0100
0000
0000
,  // measure 81
0001
0010
0000
0100
0000
0000
0000
0010
0100
0001
1000
0001
1000
0000
0100
0000
,  // measure 82
0000
0010
0000
0000
0000
0000
0000
0000
0000
0000
0000
0010
0001
0100
0001
0100
,  // measure 83
1000
0010
0000
0100
0001
0000
0000
1000
0001
0000
0010
0100
0001
1000
0001
0100
,  // measure 84
0010
0100
0010
0100
0010
0100
0001
0100
1000
0000
0000
0000
0001
0100
1000
0000
,  // measure 85
0010
0001
0100
0001
0100
0001
0010
0001
0100
0001
0100
0001
0100
0010
0001
0100
,  // measure 86
1000
0100
0010
0001
1000
0100
0000
0000
0000
0000
0000
0000
0100
0001
0000
0000
,  // measure 87
0000
0000
0000
0000
0000
0000
0000
0001
0100
0010
0001
0100
,  // measure 88
1000
0000
0000
0001
0000
0010
0100
0000
0010
0100
0000
0000
0000
0000
0000
0000
,  // measure 89
0000
0000
0010
0001
0100
0001
0100
0010
0001
1000
0001
0100
,  // measure 90
1000
0100
0000
0000
0000
0000
0000
0000
0000
0010
0001
1000
,  // measure 91
0100
0000
0000
0000
0010
0000
0000
0000
0001
0000
0000
0000
1000
0000
0000
0100
0000
0000
0001
0000
0000
0000
0000
0000
0010
0000
0000
0100
0000
0000
0000
0000
0000
0000
0000
0000
0000
0000
0000
0000
0000
0000
0000
0000
0000
0000
0000
0000
,  // measure 92
0000
0000
0000
0110
0000
0000
0000
0001
0100
0010
0001
0100
,  // measure 93
1000
0010
0001
0100
0010
0001
0100
0010
0000
0000
0000
0000
,  // measure 94
0000
0000
0010
0001
1000
0001
0100
0000
0100
0010
0001
0100
,  // measure 95
1000
0000
0000
0010
0001
1000
0001
0100
,  // measure 96
1000
0000
0000
0010
0100
0000
0001
0000
1000
0000
0000
0100
0001
0000
0010
0000
,  // measure 97
0100
0000
0000
0001
0010
0000
0100
0000
0001
0000
1000
0000
0100
0000
0001
0000
,  // measure 98
0010
0000
0000
0100
0001
0000
0010
0000
0100
0000
0000
1000
0100
0000
0001
0000
,  // measure 99
0100
0000
0000
0010
0001
0000
0100
0000
0010
0000
0000
0001
1000
0000
0100
0000
,  // measure 100
0000
0000
0000
0000
0000
0000
0000
0010
0001
0100
0001
0100
,  // measure 101
1000
0000
0100
0010
0001
0100
2000
0000
0000
0000
0000
0000
,  // measure 102
0200
0000
0000
3300
0010
0100
0001
0010
0100
0010
0001
0100
,  // measure 103
1000
0100
0000
0000
,  // measure 104
0010
0010
0010
0010
0010
0010
0010
0010
0010
0010
0010
0010
,  // measure 105
0010
0000
0010
0000
0010
0000
0010
0000
0010
0000
0010
0000
0010
0000
0010
0000
0010
0000
0010
0000
0000
0010
0000
0000
,  // measure 106
0000
0000
0000
0000
,  // measure 107
0000
0000
0000
0000
0000
0000
0000
0000
0000
0000
0100
0100
,  // measure 108
0100
0100
0100
0100
0100
0100
0100
0100
0100
0100
0100
0100
,  // measure 109
0100
0000
0100
0000
0100
0000
0100
0000
0100
0000
0100
0000
0100
0000
0100
0000
0100
0000
0100
0000
0000
0100
0000
0000
,  // measure 110
0100
0100
0100
0000
0100
0000
0000
0000
0000
0100
0000
0000
0000
0000
0000
0000
;
