#VERSION:0.83;
#TITLE:drop on the beat;
#SUBTITLE:;
#ARTIST:Paris Prestige;
#TITLETRANSLIT:;
#SUBTITLETRANSLIT:;
#ARTISTTRANSLIT:;
#GENRE:;
#ORIGIN:;
#CREDIT:;
#BANNER:;
#BACKGROUND:;
#PREVIEWVID:;
#JACKET:;
#CDIMAGE:;
#DISCIMAGE:;
#LYRICSPATH:;
#CDTITLE:;
#MUSIC:DROP ON THE BEAT.ogg;
#OFFSET:0.000000;
#SAMPLESTART:100.059883;
#SAMPLELENGTH:12.000000;
#SELECTABLE:YES;
#BPMS:0.000=128.000;
#STOPS:0.000=0.900;
#DELAYS:;
#WARPS:;
#TIMESIGNATURES:0.000=4=4;
#TICKCOUNTS:0.000=4;
#COMBOS:0.000=1;
#SPEEDS:0.000=1.000=0.000=0;
#SCROLLS:0.000=1.000;
#FAKES:;
#LABELS:0.000=Song Start;
#BGCHANGES:;
#KEYSOUNDS:;
#ATTACKS:
;

//---------------dance-single - ----------------
#NOTEDATA:;
#CHARTNAME:;
#STEPSTYPE:dance-single;
#DESCRIPTION:;
#CHARTSTYLE:;
#DIFFICULTY:Hard;
#METER:13;
#RADARVALUES:0.531067,0.715663,0.000000,0.033133,0.275000,561.000000,561.000000,0.000000,5.000000,0.000000,0.000000,0.000000,0.000000,0.000000,0.531067,0.715663,0.000000,0.033133,0.275000,561.000000,561.000000,0.000000,5.000000,0.000000,0.000000,0.000000,0.000000,0.000000;
#CREDIT:;
#NOTES:
// measure 0
0000
0000
0000
0000
,  // measure 1
0000
0000
0000
0000
,  // measure 2
0000
0000
0000
0000
,  // measure 3
0000
0000
0000
0000
,  // measure 4
0100
0000
1000
0000
0001
0100
0010
0000
,  // measure 5
0100
0000
0010
0000
0001
0100
1000
0000
,  // measure 6
0100
0000
1000
0000
0001
0100
0010
0000
,  // measure 7
0100
0000
0010
0000
0001
0100
0001
0100
,  // measure 8
1000
0000
0010
0000
0001
0100
0010
0000
,  // measure 9
0100
0000
0010
0000
0001
0100
1000
0000
,  // measure 10
0100
0000
0000
0000
0010
0000
0000
0000
0001
0000
0100
0000
0000
0000
0010
0100
,  // measure 11
0000
0001
0000
0000
0010
0000
0100
0001
1000
0100
0001
0000
0001
0000
0100
0000
,  // measure 12
1000
0000
0010
0000
0001
0100
1000
0000
,  // measure 13
0100
0000
0000
0000
0010
0000
0000
0000
0001
0000
0100
0000
1000
0000
1000
0100
,  // measure 14
0010
0000
0000
0000
0010
0000
0000
0000
0001
0000
0100
0000
1000
0000
0001
0100
,  // measure 15
0000
0010
0000
0100
0001
1000
0001
0010
0100
0000
0010
0000
0001
0000
0100
0000
,  // measure 16
0010
0000
0001
0000
0100
0010
1000
0001
,  // measure 17
0100
0000
0100
0010
0001
0100
0001
0100
,  // measure 18
0010
0001
1000
0001
0100
0000
0010
0001
,  // measure 19
0100
0000
0100
0000
0010
0100
0001
0100
,  // measure 20
1000
0000
0100
0000
0010
0100
0001
0100
,  // measure 21
1000
0000
0100
0000
0000
0010
0001
0100
,  // measure 22
0000
0001
1000
0001
0100
0000
0010
0100
,  // measure 23
0001
0000
0100
0000
0010
0100
0001
1000
,  // measure 24
0001
0010
0100
0010
0100
0010
0001
0100
,  // measure 25
0001
0100
0010
0100
0010
0001
1000
0001
,  // measure 26
0100
0010
0001
0100
0001
0100
0010
0001
,  // measure 27
1000
0000
0001
0000
0100
0000
0010
0100
0001
0000
0100
0000
0001
0000
0100
0000
,  // measure 28
0010
0100
1000
0100
0010
1000
0100
0010
,  // measure 29
0001
0100
0001
0100
0010
0001
0100
0001
,  // measure 30
0100
0010
0001
1000
0001
0100
0010
0001
,  // measure 31
0100
0000
0001
0000
0100
0000
0010
1000
0001
0000
0100
0000
0001
0000
0100
0000
,  // measure 32
1000
0010
0100
0010
0100
0010
0100
0001
,  // measure 33
0100
0010
0100
0010
0001
0100
0001
0100
,  // measure 34
0010
0001
1000
0001
0100
0010
0001
0100
,  // measure 35
0001
0000
0100
0000
0010
0000
0001
1000
0100
0000
0100
0000
0010
0000
0001
0000
,  // measure 36
0100
0001
0100
0010
0001
0100
0001
0100
,  // measure 37
0010
1000
0100
0010
0100
0001
0010
0100
,  // measure 38
0001
0100
1000
0010
0001
0100
0001
0100
,  // measure 39
0100
0010
0001
0100
2000
0000
0000
0000
,  // measure 40
0000
3000
0020
0000
,  // measure 41
0000
0030
0002
0000
,  // measure 42
0000
0003
0200
0000
,  // measure 43
0000
0300
0010
0100
,  // measure 44
0010
0001
0100
0010
,  // measure 45
0001
0100
0001
0100
,  // measure 46
0010
0001
1000
0001
,  // measure 47
0100
0000
0010
0000
0001
0100
0010
0000
,  // measure 48
0001
0100
1000
0000
0010
0100
0001
0000
,  // measure 49
1000
0100
0001
0000
0001
0100
0010
0000
,  // measure 50
0001
0100
0010
0000
0001
0100
1000
0000
,  // measure 51
0001
0100
0010
0000
0001
0100
0010
0000
,  // measure 52
0001
0100
1000
0000
0001
0100
0010
0000
,  // measure 53
0001
0100
0010
0000
0001
0100
1000
0000
,  // measure 54
0001
0100
0010
0000
0001
0100
1000
0000
,  // measure 55
0001
0000
0010
0000
0100
0000
0000
0000
1000
0000
0000
0001
0100
0000
0000
0010
,  // measure 56
0100
0000
0010
0100
0001
0000
0000
0010
0100
0000
0000
0010
0100
0000
0000
0001
,  // measure 57
0010
0000
0100
0001
0010
0000
0000
0010
0100
0000
0000
0001
0010
0000
0000
1000
,  // measure 58
0100
0000
0010
0001
1000
0000
0000
0100
0001
0000
0000
0010
0100
0000
0000
0001
,  // measure 59
1000
0000
0100
0001
0010
0000
0000
0000
1000
0000
0000
0000
0001
0000
0100
0000
,  // measure 60
1000
0000
0000
0000
0100
0000
0010
0100
0001
0000
0000
0000
0001
0000
0100
0000
,  // measure 61
1000
0000
0000
0000
0001
0000
0100
0001
0010
0000
0010
0000
0010
0000
0100
0000
,  // measure 62
0100
0000
0100
0000
0100
0000
0100
0001
0010
0000
0000
0000
0010
0000
0001
0000
,  // measure 63
0100
0000
0000
0000
0001
0000
0000
0000
0100
0000
0001
0000
0010
0000
1000
0001
,  // measure 64
0100
0000
0001
0000
0010
0000
0001
1000
0100
0000
0010
0000
0100
0000
0001
1000
,  // measure 65
0100
0000
0100
0000
0010
0000
0001
1000
0100
0000
0001
0000
0010
0000
0001
1000
,  // measure 66
0100
0010
0100
0000
0001
0000
1000
0100
0001
0000
0010
0000
0001
0000
0100
0001
,  // measure 67
0010
0100
0001
0000
0010
0000
0100
0001
0010
0000
0100
0000
0010
0000
0100
0001
,  // measure 68
1000
0000
0100
0000
0010
0000
0100
0001
0010
0000
0100
0000
0010
0000
0001
1000
,  // measure 69
0100
0000
0001
0000
0010
0000
0001
1000
0100
0000
0001
0000
0010
0000
0001
0100
,  // measure 70
1000
0000
0100
0000
0010
0000
0001
1000
0100
0000
0100
0000
0010
0000
0001
0100
,  // measure 71
1000
0010
0100
0001
1000
0001
0010
0100
0010
0000
0001
0100
0010
0000
0100
0001
,  // measure 72
1000
0000
0100
0001
0010
0000
0100
0001
1000
0000
0010
0100
0001
0000
0100
0010
,  // measure 73
0100
0000
0010
0001
0100
0000
0010
0100
0001
0000
0001
1000
0100
0000
0010
0100
,  // measure 74
0001
0000
1000
0100
0001
0000
0010
0100
0001
0000
1000
0100
0001
0000
0010
0100
,  // measure 75
0001
0000
0100
0010
0100
0000
0010
0100
0001
0000
0010
0100
0001
0000
0010
0100
,  // measure 76
0001
0000
1000
0100
0001
0000
0010
0100
0001
0000
1000
0100
0001
0000
0010
0100
,  // measure 77
0001
0000
0001
0100
0010
0000
1000
0001
0100
0000
0010
0100
0001
0000
1000
0100
,  // measure 78
0001
0000
0010
0100
0001
0000
1000
0100
0001
0000
0010
0100
0001
0000
1000
0100
,  // measure 79
0001
0100
0000
0000
0001
0000
0000
0000
0002
0000
0000
0000
0000
0000
0000
0000
,  // measure 80
0003
0000
0000
0000
;
