#VERSION:0.83;
#TITLE:dracula;
#SUBTITLE:;
#ARTIST:Tame Impala & JENNIE;
#TITLETRANSLIT:;
#SUBTITLETRANSLIT:;
#ARTISTTRANSLIT:;
#GENRE:;
#ORIGIN:;
#CREDIT:;
#BANNER:;
#BACKGROUND:;
#PREVIEWVID:;
#JACKET:;
#CDIMAGE:;
#DISCIMAGE:;
#LYRICSPATH:;
#CDTITLE:;
#MUSIC:Tame Impala, JENNIE - Dracula (JENNIE Remix - Official Lyric Video).ogg;
#OFFSET:0.000000;
#SAMPLESTART:100.059883;
#SAMPLELENGTH:12.000000;
#SELECTABLE:YES;
#BPMS:0.000=115.000;
#STOPS:0.000=0.700;
#DELAYS:;
#WARPS:;
#TIMESIGNATURES:0.000=4=4;
#TICKCOUNTS:0.000=4;
#COMBOS:0.000=1;
#SPEEDS:0.000=1.000=0.000=0;
#SCROLLS:0.000=1.000;
#FAKES:;
#LABELS:0.000=Song Start;
#BGCHANGES:;
#KEYSOUNDS:;
#ATTACKS:
;

//---------------dance-single - ----------------
#NOTEDATA:;
#CHARTNAME:;
#STEPSTYPE:dance-single;
#DESCRIPTION:;
#CHARTSTYLE:;
#DIFFICULTY:Hard;
#METER:11;
#RADARVALUES:0.380784,0.487663,0.028508,0.128286,0.270825,561.000000,555.000000,6.000000,27.000000,0.000000,0.000000,0.000000,0.000000,0.000000,0.380784,0.487663,0.028508,0.128286,0.270825,561.000000,555.000000,6.000000,27.000000,0.000000,0.000000,0.000000,0.000000,0.000000;
#CREDIT:;
#NOTES:
// measure 0
0000
0000
0000
0000
,  // measure 1
0000
0000
0000
0000
,  // measure 2
0000
0000
0000
0000
,  // measure 3
0000
0000
0000
0000
,  // measure 4
0001
0100
0001
0100
,  // measure 5
0010
0001
0100
0001
,  // measure 6
0100
0010
0001
1000
,  // measure 7
0001
0100
0001
0100
,  // measure 8
0010
0000
0100
0010
0001
0100
0001
0000
,  // measure 9
0100
0000
0010
0100
0001
0000
1000
0000
0100
0000
0001
0000
0010
0000
0000
0000
,  // measure 10
0010
0000
0000
0000
0100
0000
0001
1000
0100
0000
0001
0100
0001
0000
0000
0000
,  // measure 11
0001
0000
0100
0000
0010
0001
0100
0000
,  // measure 12
0100
0010
0001
0100
,  // measure 13
0001
0000
0100
0000
0010
0000
1000
0001
,  // measure 14
0100
0100
0010
0000
0100
0001
0100
0000
,  // measure 15
0100
0000
0001
0000
0100
0000
0001
1000
0000
0000
0001
0000
0100
0000
0100
0000
,  // measure 16
0010
0001
0100
0001
0100
0010
0001
1000
,  // measure 17
0001
0000
0100
0000
0010
0000
0100
0001
0000
0000
1000
0100
0001
0010
0100
0001
,  // measure 18
0010
0010
0001
0100
0010
0001
1000
0001
,  // measure 19
0100
0000
0010
0000
0100
0000
0001
0010
0000
0000
0000
0000
0000
0000
0000
0000
,  // measure 20
0100
0000
0010
0000
0001
0000
1000
0000
0001
0000
0100
0000
0010
0000
0100
0001
,  // measure 21
0010
0001
1000
0100
,  // measure 22
0000
0000
0000
0000
0100
0000
0010
0100
0000
0000
0001
0000
0100
0000
0010
0000
,  // measure 23
0100
0000
0001
0000
0020
0000
0000
0000
0000
0000
0030
0000
0100
0001
0000
0000
,  // measure 24
0100
0000
0000
0000
0010
0000
0100
0001
0000
0000
0100
0000
0001
0000
0010
0000
,  // measure 25
0100
0010
0001
0001
0010
0000
0100
0000
,  // measure 26
0101
0000
0000
0000
0010
0000
0100
0001
0000
0000
0010
0000
0100
0000
0001
0000
,  // measure 27
1000
0100
0020
0000
0000
0000
0030
0000
,  // measure 28
0010
0100
0020
0000
0000
0000
0030
0100
,  // measure 29
0001
1000
0200
0000
0010
0000
0300
0100
,  // measure 30
0010
0001
0100
0001
0100
0010
0001
1000
,  // measure 31
0001
0000
0100
0000
0010
0000
0100
0001
0000
0000
0000
0000
0000
0000
0010
0000
,  // measure 32
0001
0100
0010
0001
1000
0001
0100
0010
,  // measure 33
0001
0000
0100
0000
0001
0000
1000
0100
0000
0000
0000
0000
0000
0000
0010
0000
,  // measure 34
0001
0100
0001
0100
0010
0001
1000
0001
,  // measure 35
0100
0000
0010
0000
0100
0000
0001
0010
0000
0000
0000
0000
0000
0000
0000
0000
,  // measure 36
0100
0000
0010
0000
0001
0000
1000
0000
0001
0000
0100
0000
0010
0000
0100
0001
,  // measure 37
0020
0030
0100
0001
,  // measure 38
0000
0000
0000
0000
0100
0000
0001
1000
0000
0000
0100
0000
0001
0000
0010
0000
,  // measure 39
0100
0001
0020
0000
0100
0000
0100
0000
,  // measure 40
0130
0000
0000
0000
0001
0000
0100
1000
0000
0000
0010
0000
0001
0000
1000
0000
,  // measure 41
0001
0100
2000
0000
3000
0000
0001
0000
,  // measure 42
0100
0000
0000
0000
0001
0000
0010
0100
0000
0000
0001
0000
0010
0000
0100
0000
,  // measure 43
0001
0100
1000
0100
0001
1000
0001
0100
,  // measure 44
0010
0100
1000
0100
0001
0010
0100
0000
,  // measure 45
0010
0000
0000
0000
0100
0000
0000
0001
0010
0000
0000
0000
0100
0000
0000
0001
,  // measure 46
0000
1000
0000
0100
0000
0000
0000
0000
0100
0000
0001
0000
1000
0000
0100
0001
,  // measure 47
0010
0000
0000
0000
0100
0000
0000
0001
1000
0000
0000
0000
0100
0000
0000
0010
,  // measure 48
0000
0001
0000
1000
0000
0000
0000
0000
0100
0000
0001
0000
1000
0000
0100
0001
,  // measure 49
0010
0000
0000
0000
0001
0000
0000
1000
0100
0000
0000
0000
0010
0000
0000
0001
,  // measure 50
0000
1000
0000
0100
0000
0000
0000
0000
0010
0000
0100
0000
0001
0000
1000
0100
,  // measure 51
0001
0000
0000
0000
0010
0000
0000
0100
0010
0000
0000
0000
0010
0000
0000
0001
,  // measure 52
0000
1000
0000
0100
0000
0000
0000
0000
0001
0000
0100
0000
0010
0000
0100
0001
,  // measure 53
1000
0010
0000
0100
0001
0000
0000
0000
0010
0000
0000
0000
0100
0000
0000
0000
,  // measure 54
0020
0000
0000
0000
0030
0000
0100
0000
0001
1000
0100
0000
0001
0000
0000
0000
,  // measure 55
0020
0000
0000
0000
0030
0000
0100
0000
0001
0010
0100
0010
0001
0000
0000
0000
,  // measure 56
1001
0000
0000
0000
0100
0000
0001
0000
1000
0000
0000
0001
0000
0010
0100
0010
,  // measure 57
0100
0001
1000
0100
0010
0000
0000
0000
0010
0000
0000
0000
0100
0000
0001
1000
,  // measure 58
0000
0100
0001
0000
0010
0000
0100
0001
0000
1000
0100
0000
0010
0000
0001
0010
,  // measure 59
0000
0100
0001
0000
0100
0010
0000
0100
0000
0001
1000
0000
0100
0000
0001
1000
,  // measure 60
0000
0000
0000
0000
0100
0000
0001
1000
0000
0100
0001
0000
0010
0000
0100
0001
,  // measure 61
0000
0100
0001
0000
0000
0000
1000
0000
0100
0000
0001
0000
0010
0000
0100
0000
,  // measure 62
0020
0000
0000
0000
0000
0030
1000
0100
,  // measure 63
0001
0010
0100
0000
0010
0100
0001
0000
,  // measure 64
2000
0000
0000
0000
3000
0000
0001
0100
,  // measure 65
0010
0001
0001
0100
0001
0100
1000
0000
,  // measure 66
0220
0000
0000
0000
0330
0000
0001
1000
,  // measure 67
0100
0010
0001
0000
0001
0100
1000
0000
,  // measure 68
0220
0000
0330
0000
0100
0001
0010
0000
,  // measure 69
0220
0000
0330
0202
,  // measure 70
0303
0000
0000
0000
0010
0000
0100
0001
0000
0000
1000
0000
0100
0000
0001
0000
,  // measure 71
0010
0100
2000
0000
0001
0000
0001
0000
,  // measure 72
3001
0000
0000
0000
0100
0000
0010
0001
0000
0000
0100
0000
0010
0000
0100
0000
,  // measure 73
0001
0100
2000
0000
3000
0000
0001
0000
,  // measure 74
0010
0000
0000
0000
0010
0000
0100
0001
0000
0000
0010
0000
0100
0000
0010
0000
,  // measure 75
0001
1000
0002
0000
0000
0000
0003
0010
,  // measure 76
0001
0100
0020
0000
0000
0000
0030
0100
,  // measure 77
0010
0000
0000
0000
0100
0000
0000
0001
0010
0000
0000
0000
0100
0000
0000
0001
,  // measure 78
0000
1000
0000
0100
0000
0000
0000
0000
0100
0000
0001
0000
1000
0000
0100
0001
,  // measure 79
0010
0000
0000
0000
0100
0000
0000
0001
1000
0000
0000
0000
0010
0000
0000
0001
,  // measure 80
0000
0100
0000
0010
0000
0000
0000
0000
0001
0000
0100
0000
0010
0000
0100
0001
,  // measure 81
0100
0000
0000
0000
0010
0000
0000
0001
0100
0000
0000
0000
0100
0000
0000
0010
,  // measure 82
0000
0001
0000
0100
0000
0000
0000
0000
0100
0000
0001
0000
1000
0000
0100
0001
,  // measure 83
0010
0000
0000
0000
0001
0000
0000
1000
0100
0000
0000
0000
0001
0000
0000
0100
,  // measure 84
0000
0010
0000
0001
0000
0000
0000
0000
0001
0000
0100
0000
0010
0000
0100
0001
,  // measure 85
1000
0000
0000
0000
0100
0000
0000
0010
0001
0000
0000
0000
0001
0000
0000
0100
,  // measure 86
0000
0010
0000
0001
0000
0000
0000
0000
0001
0000
1000
0000
0100
0000
0010
0100
,  // measure 87
0001
0000
0000
0000
0010
0000
0000
0100
0001
0000
0000
0000
0001
0000
0000
0100
,  // measure 88
0000
0010
0000
0001
0000
0000
0000
0000
0001
0000
0100
0000
0010
0000
0100
0001
,  // measure 89
0010
0000
0000
0000
0100
0000
0000
0010
0001
0000
0000
0000
0100
0000
0000
0010
,  // measure 90
0000
0001
0000
0200
0000
0000
0000
0000
0000
0000
0000
0000
0000
0000
0000
0300
,  // measure 91
0001
0000
0000
0000
1000
0000
0000
0100
0001
0000
0000
0000
0010
0000
0000
0100
,  // measure 92
0000
0001
0000
2000
0000
0000
0000
0000
0000
0000
0000
0000
0000
3000
0000
0000
,  // measure 93
0001
0000
0000
0000
0100
0000
0000
0010
0001
0000
0000
0000
0100
0000
0000
0010
,  // measure 94
0000
0001
0000
0200
0000
0000
0000
0000
0000
0000
0000
0000
0000
0000
0300
0000
,  // measure 95
0010
0000
0000
0000
0001
0000
0000
0100
0010
0000
0000
0000
0010
0000
0000
0001
,  // measure 96
0000
0100
0000
2000
0000
0000
0000
0000
0000
0000
0000
0000
0000
0000
0000
0000
,  // measure 97
0000
0000
0000
3000
;
