#TITLE:dont you think its strange;
#SUBTITLE:;
#ARTIST:Wallows;
#TITLETRANSLIT:;
#SUBTITLETRANSLIT:;
#ARTISTTRANSLIT:;
#GENRE:;
#CREDIT:;
#BANNER:;
#BACKGROUND:;
#LYRICSPATH:;
#CDTITLE:;
#MUSIC:Wallows - Dont You Think Its Strange_ (Official Audio).ogg;
#OFFSET:0.000000;
#SAMPLESTART:100.059883;
#SAMPLELENGTH:12.000000;
#SELECTABLE:YES;
#BPMS:0.000000=151.000000
;
#STOPS:0.000000=0.100000,
28.000000=1.600000
;
#BGCHANGES:;
#KEYSOUNDS:;
#ATTACKS:;

//---------------dance-single - ----------------
#NOTES:
     dance-single:
     :
     Hard:
     9:
     0.326251,0.458016,0.014454,0.322809,0.052999,474.000000,471.000000,3.000000,67.000000,0.000000,0.000000,0.326251,0.458016,0.014454,0.322809,0.052999,474.000000,471.000000,3.000000,67.000000,0.000000,0.000000:
// measure 0
0000
0000
0000
0000
,  // measure 1
0000
0000
0000
0000
,  // measure 2
0000
0000
0000
0000
,  // measure 3
0000
0000
0000
0000
,  // measure 4
0001
0100
0001
0100
,  // measure 5
2000
0000
3000
0100
,  // measure 6
0200
0000
0300
0010
,  // measure 7
0110
0000
0001
1000
0100
0000
0010
0100
,  // measure 8
0001
0000
0100
0010
0001
0100
0001
0100
,  // measure 9
1000
0000
0001
0100
1000
0000
0010
0001
,  // measure 10
0100
0000
0100
0010
0001
0100
0001
0100
,  // measure 11
1000
0000
0001
0100
0010
0000
0001
0100
,  // measure 12
1000
0000
0100
0010
0001
0100
0001
0100
,  // measure 13
1000
0000
0001
0100
1000
0000
0100
0001
,  // measure 14
0100
0000
0100
0010
0001
0100
0001
0100
,  // measure 15
1000
0010
0001
0100
,  // measure 16
0001
0100
2000
3000
,  // measure 17
0010
0001
0100
0001
,  // measure 18
0100
0001
0200
0300
,  // measure 19
0001
0100
0001
0010
,  // measure 20
0001
0100
2000
3000
,  // measure 21
0100
0000
0001
1000
0100
0000
0100
0000
,  // measure 22
0001
0000
0000
0000
0100
0000
0000
0000
0000
0100
0000
0000
0000
0000
0000
0000
,  // measure 23
0001
0100
0001
0100
,  // measure 24
0001
0100
2000
3000
,  // measure 25
0010
0001
1000
0001
,  // measure 26
0100
0010
0002
0003
,  // measure 27
0010
0001
0100
0001
,  // measure 28
0100
1000
0200
0300
,  // measure 29
1000
0001
0100
0010
,  // measure 30
0001
0100
0010
0001
1000
0001
0100
0010
,  // measure 31
0200
2000
0000
3300
,  // measure 32
0100
0010
0001
0100
0001
0100
0001
1000
,  // measure 33
0200
0020
0000
0330
,  // measure 34
0001
0100
0001
0100
1000
0100
0001
0100
,  // measure 35
2000
0200
0000
3300
,  // measure 36
0001
0100
0010
0001
1000
0001
0100
0010
,  // measure 37
2000
0002
0000
0000
,  // measure 38
3003
0000
0010
0000
0100
0000
0001
0000
0010
0000
0000
0100
0000
0000
0001
0000
,  // measure 39
1000
0001
0100
0010
,  // measure 40
0001
1000
0001
0100
,  // measure 41
0001
0100
0001
0100
,  // measure 42
0001
0100
0001
0100
,  // measure 43
2000
0000
0000
0000
,  // measure 44
0000
0000
0000
3000
,  // measure 45
0020
0000
0000
0000
,  // measure 46
0000
0000
0000
0030
,  // measure 47
0100
0001
1000
0000
0001
0000
0100
0000
,  // measure 48
0001
0100
2000
3000
,  // measure 49
1000
0110
0001
1000
,  // measure 50
0001
0100
0020
0030
,  // measure 51
0001
0100
0001
1000
,  // measure 52
0001
0100
0020
0030
,  // measure 53
1000
0001
0100
0010
,  // measure 54
0100
0001
0100
0010
0001
1000
0001
0100
,  // measure 55
2000
0200
0000
3300
,  // measure 56
0100
0001
0100
0001
0100
0001
0010
0100
,  // measure 57
0002
2000
0000
3003
,  // measure 58
0010
0100
0001
1000
0001
0010
0100
0001
,  // measure 59
0020
0200
0000
0330
,  // measure 60
0010
0001
0100
0010
0001
1000
0001
0100
,  // measure 61
2000
0200
0000
3300
,  // measure 62
0000
0000
0100
0000
0001
0000
1000
0000
0001
0000
0000
0010
0000
0000
0100
0000
,  // measure 63
0002
0020
0000
0033
,  // measure 64
0100
0001
1000
0100
0001
0100
0001
0010
,  // measure 65
0200
0020
0000
0330
,  // measure 66
0100
0010
0001
1000
0001
0100
0001
0010
,  // measure 67
0200
0020
0000
0330
,  // measure 68
0010
0001
0100
0010
0001
0100
0001
0100
,  // measure 69
2000
0200
0000
3300
,  // measure 70
0000
0000
0100
0000
0001
0000
1000
0000
0001
0000
0000
0010
0000
0000
0100
0000
,  // measure 71
0220
0000
0000
0000
,  // measure 72
0000
0000
0330
0010
,  // measure 73
0002
0000
0000
0000
,  // measure 74
0000
0003
2000
3000
,  // measure 75
0200
0000
0000
0000
,  // measure 76
0000
0000
0000
0300
,  // measure 77
0002
0000
0000
0000
,  // measure 78
0000
0000
0000
0003
,  // measure 79
0001
0100
0010
0001
,  // measure 80
1000
0001
0010
0100
,  // measure 81
0100
0001
0100
0001
,  // measure 82
0100
0001
1000
0100
,  // measure 83
0010
0001
0100
0001
,  // measure 84
0100
0010
0001
1000
,  // measure 85
0001
0100
0010
0010
,  // measure 86
0001
0100
0001
0100
,  // measure 87
1000
0010
0100
0001
,  // measure 88
1000
0001
0100
0001
,  // measure 89
0100
0010
0001
0100
,  // measure 90
0001
0100
1000
0001
,  // measure 91
0100
0010
0001
0100
,  // measure 92
0001
0100
0010
0001
,  // measure 93
1000
0000
0001
0000
0100
0000
0010
1000
,  // measure 94
0100
0001
0100
0001
0010
0100
0001
1000
,  // measure 95
0200
2000
0000
3300
,  // measure 96
1000
0100
0001
0100
0001
0100
0001
0010
,  // measure 97
0200
0020
0000
0330
,  // measure 98
0001
1000
0100
0001
0100
0001
1000
0001
,  // measure 99
0020
0200
0000
0330
,  // measure 100
0001
1000
0100
0001
0100
0001
1000
0001
,  // measure 101
0020
0200
0000
0330
,  // measure 102
0000
0000
0001
0000
1000
0000
0100
0000
0001
0000
0000
0010
0000
0000
0100
0000
,  // measure 103
0002
2000
0000
3003
,  // measure 104
0010
0100
0001
1000
0001
0010
0100
0001
,  // measure 105
2000
0200
0000
3300
,  // measure 106
0010
0100
0001
1000
0001
0010
0100
0001
,  // measure 107
0020
0200
0000
0330
,  // measure 108
0000
0010
0001
0100
0001
1000
0100
0001
,  // measure 109
0000
0020
0000
0000
0000
0000
0200
0000
0000
0000
0000
0000
0330
0000
0000
0000
,  // measure 110
0000
0000
1000
0000
0001
0000
0100
0000
0010
0000
0000
0001
0000
0000
0100
0000
,  // measure 111
0020
0000
0000
0030
,  // measure 112
0000
1000
0000
0000
0000
0100
0000
0000
0010
0000
0000
0001
0000
0000
0010
0000
,  // measure 113
0200
0000
0000
0300
,  // measure 114
0000
0001
0000
0000
0000
0010
0000
0000
0100
0000
0000
0001
0000
0000
0010
0000
,  // measure 115
2000
0000
0000
0000
,  // measure 116
0000
0000
0000
3000
,  // measure 117
0200
0000
0000
0300
,  // measure 118
0000
0100
0000
0000
0000
0001
0000
0000
0010
0000
0000
0100
0000
0000
0001
0000
,  // measure 119
2000
0000
0000
3000
,  // measure 120
0000
0000
0000
0100
0000
0010
0000
0000
0001
0000
0000
0100
0000
0000
1000
0000
,  // measure 121
0020
0000
0000
0030
,  // measure 122
0000
0100
0000
0000
0000
0001
0000
0000
0010
0000
0000
0100
0000
0000
0001
0000
,  // measure 123
2000
0000
0000
0000
,  // measure 124
0000
0000
0000
3000
,  // measure 125
0200
0000
0000
0000
,  // measure 126
0000
0000
0000
0300
;
