#VERSION:0.83;
#TITLE:dont die;
#SUBTITLE:;
#ARTIST:Odetari & SOYEON (Of I DLE);
#TITLETRANSLIT:;
#SUBTITLETRANSLIT:;
#ARTISTTRANSLIT:;
#GENRE:;
#ORIGIN:;
#CREDIT:;
#BANNER:;
#BACKGROUND:;
#PREVIEWVID:;
#JACKET:;
#CDIMAGE:;
#DISCIMAGE:;
#LYRICSPATH:;
#CDTITLE:;
#MUSIC:Odetari - DON'T DIE feat. SOYEON of i-dle (Official Music Video).ogg;
#OFFSET:0.000000;
#SAMPLESTART:100.059883;
#SAMPLELENGTH:12.000000;
#SELECTABLE:YES;
#BPMS:0.000=160.000;
#STOPS:0.000=0.100;
#DELAYS:;
#WARPS:;
#TIMESIGNATURES:0.000=4=4;
#TICKCOUNTS:0.000=4;
#COMBOS:0.000=1;
#SPEEDS:0.000=1.000=0.000=0;
#SCROLLS:0.000=1.000;
#FAKES:;
#LABELS:0.000=Song Start;
#BGCHANGES:0.000=Odetari - DON'T DIE feat. SOYEON of i-dle (Official Music Video).mp4=1.000=0=0=1=====,
99999=-nosongbg-=1.000=0=0=0 // don't automatically add -songbackground-
;
#KEYSOUNDS:;
#ATTACKS:
;

//---------------dance-single - ----------------
#NOTEDATA:;
#CHARTNAME:;
#STEPSTYPE:dance-single;
#DESCRIPTION:;
#CHARTSTYLE:;
#DIFFICULTY:Hard;
#METER:12;
#RADARVALUES:0.647024,0.679375,0.037431,0.037431,0.042778,847.000000,840.000000,7.000000,7.000000,0.000000,0.000000,0.000000,0.000000,0.000000,0.647024,0.679375,0.037431,0.037431,0.042778,847.000000,840.000000,7.000000,7.000000,0.000000,0.000000,0.000000,0.000000,0.000000;
#CREDIT:;
#NOTES:
// measure 0
0000
0000
0000
0000
,  // measure 1
0000
0000
0000
0000
,  // measure 2
0000
0000
0000
0000
0000
0001
0100
0010
,  // measure 3
0001
0000
0100
0000
0001
0000
0100
0010
,  // measure 4
1000
0100
0010
0001
1000
0001
0100
0000
,  // measure 5
0010
0001
0100
0000
,  // measure 6
0010
0000
0001
0100
1000
0000
0000
0000
,  // measure 7
0100
0000
0001
0000
0010
0000
0000
0010
,  // measure 8
0001
0000
0100
0000
0001
0000
0100
0000
0010
0001
0100
0010
0001
1000
0001
0100
,  // measure 9
1000
0010
0100
0010
0001
0100
0001
0100
,  // measure 10
1000
0010
0100
0010
0001
0100
0001
0100
,  // measure 11
0010
0001
1000
0001
0100
0010
0001
0100
,  // measure 12
0001
0100
0010
0001
0100
0001
0100
0010
,  // measure 13
0001
1000
0001
0100
0001
0100
0010
0001
,  // measure 14
0100
0001
0100
0010
0001
0100
0001
0100
,  // measure 15
1000
0010
0001
0100
0001
0100
0010
0001
,  // measure 16
1000
0001
0100
0001
0100
0010
0100
0001
,  // measure 17
1000
0000
0000
0000
0100
0000
0010
0100
,  // measure 18
0000
0001
0000
0000
,  // measure 19
0100
0000
0000
0000
0010
0000
0001
0100
,  // measure 20
0000
0000
0010
0000
0000
0100
0101
0000
,  // measure 21
0101
0010
0001
0100
0001
0100
0010
0001
,  // measure 22
1000
0001
0100
0010
0001
0100
0001
0100
,  // measure 23
1000
0010
0001
0100
0001
0100
0010
0001
,  // measure 24
0100
0001
0100
0010
0001
0100
0001
0100
,  // measure 25
1000
0100
0010
0001
0100
0001
0100
0001
,  // measure 26
0100
0010
0001
1000
0001
0100
0010
0001
,  // measure 27
0100
0001
0100
0010
0001
0100
0001
0100
,  // measure 28
1000
0100
0010
0100
0001
0100
0001
0100
,  // measure 29
1000
0100
0010
0100
0010
0001
0100
0001
,  // measure 30
0100
0001
0100
0010
0100
1000
0010
0100
,  // measure 31
0010
0100
0001
0100
0010
0001
0100
0001
,  // measure 32
0100
0100
0010
0001
0100
0001
0100
0001
,  // measure 33
0100
0010
0001
0100
0001
0100
0010
0001
,  // measure 34
1000
0000
0001
0000
0100
0000
0010
0000
1000
0100
0001
0000
0010
0000
0100
0000
,  // measure 35
0001
0010
0100
0010
0001
1000
0001
0100
,  // measure 36
0001
0100
0010
0100
0001
0100
0001
0100
,  // measure 37
1000
0100
0010
0100
0001
0100
0001
1000
,  // measure 38
0100
0010
0100
0001
1000
0001
0010
0100
,  // measure 39
0001
0010
0001
1000
0001
0100
0010
0001
,  // measure 40
1000
0001
0100
0010
0001
0100
0001
0100
,  // measure 41
0010
0001
0100
0001
0100
0001
0100
0010
,  // measure 42
0001
1000
0001
0100
0010
0001
0100
0001
,  // measure 43
0100
0010
0001
0100
0001
0100
0010
0001
,  // measure 44
1000
0001
0100
0010
0001
0100
0001
0100
,  // measure 45
2000
0000
0000
0000
3000
0000
0000
0100
,  // measure 46
0100
0000
0000
0010
,  // measure 47
0010
0001
1000
0001
,  // measure 48
0100
0001
0100
0010
,  // measure 49
0200
0000
0000
0000
0000
0000
0300
0100
,  // measure 50
0001
0000
0000
0000
,  // measure 51
0010
0000
0100
0000
0100
0001
0010
0000
,  // measure 52
0100
0010
0001
1000
0001
0010
0100
0001
,  // measure 53
1000
0010
0001
0100
0001
0100
0010
0001
,  // measure 54
1000
0001
0100
0010
0001
0100
0001
0100
,  // measure 55
1000
0010
0100
0010
1000
0010
0100
0001
,  // measure 56
0100
0001
0100
0010
0001
0100
0001
0100
,  // measure 57
0010
0001
1000
0010
0100
0010
0001
0100
,  // measure 58
0010
0001
0100
0001
0100
0010
0001
0100
,  // measure 59
0001
0100
0010
0001
1000
0001
0100
0010
,  // measure 60
0100
0001
0100
0010
0001
0100
0001
0100
,  // measure 61
0010
0001
1000
0001
0100
0010
0001
0100
,  // measure 62
0001
0100
0010
0100
1000
0100
0010
0100
,  // measure 63
0001
0100
0001
0100
0010
0001
1000
0001
,  // measure 64
0100
0010
0001
0100
0001
0100
0010
0001
,  // measure 65
1000
0001
0100
0010
0001
0100
0001
0100
,  // measure 66
0010
0001
0100
0001
0100
0001
0100
0001
,  // measure 67
0100
1000
0100
0010
0001
0100
0001
0100
,  // measure 68
0001
0100
0010
0001
1000
0001
0100
0010
,  // measure 69
0100
0000
0000
0000
0001
0000
0010
0100
,  // measure 70
0000
0010
0000
0000
,  // measure 71
0001
0000
0000
0000
0100
0000
0010
0001
,  // measure 72
0000
0000
0100
0000
0000
0100
0101
0000
,  // measure 73
0101
0001
0100
0010
0001
1000
0001
0100
,  // measure 74
0010
0100
0001
0100
0001
0100
0001
0100
,  // measure 75
1000
0100
0001
0000
0010
0000
0100
0000
0001
0000
1000
0000
0001
0000
0010
0000
,  // measure 76
0010
0100
0010
0001
1000
0001
0100
0010
,  // measure 77
0100
0001
0010
0000
0100
0000
0010
0000
0100
0000
0010
0000
0001
0000
0100
0000
,  // measure 78
0001
0100
0001
0100
0010
0001
1000
0001
,  // measure 79
0100
0010
0001
0100
0001
0100
0010
0001
,  // measure 80
1000
0001
0100
0010
0001
0100
0001
0100
,  // measure 81
1000
0000
0010
0000
0010
0000
0100
0000
0001
0000
0010
0100
0001
0000
1000
0000
,  // measure 82
0100
0000
0010
0001
0100
0000
0100
0000
0010
0000
0001
0000
0100
0000
0001
0000
,  // measure 83
0100
0000
0010
0000
0001
0000
0100
0000
0010
0000
0100
0001
0010
0000
0100
0000
,  // measure 84
0001
0000
1000
0100
0001
0000
0100
0000
0010
0000
0100
0000
0001
0000
0100
0000
,  // measure 85
0010
0000
0001
0000
0100
0000
0010
0000
0100
0000
0010
0100
0001
1000
0100
0000
,  // measure 86
0001
0000
0100
0010
0001
0100
1000
0000
0100
0000
0100
0000
0010
0000
0001
0000
,  // measure 87
1000
0001
0100
0010
0001
0100
0001
0100
,  // measure 88
1000
0010
0100
0010
0001
1000
0001
0100
,  // measure 89
0020
0000
0000
0000
0000
0000
0030
0100
,  // measure 90
0010
0001
1000
0001
0100
0000
0010
0001
,  // measure 91
0200
0000
0000
0000
0000
0000
0300
0100
,  // measure 92
0010
0001
1000
0001
0100
0000
0001
0100
,  // measure 93
0020
0000
0000
0000
0000
0000
0030
0010
,  // measure 94
1000
0001
0100
0010
0001
0000
0100
0000
,  // measure 95
0220
0000
0000
0330
,  // measure 96
0101
0000
0101
0000
0100
0001
0100
0001
,  // measure 97
1000
0010
0001
0100
0010
0100
0001
0100
,  // measure 98
1000
0100
0100
0010
0100
0010
0001
0100
,  // measure 99
0001
0100
0010
0001
0100
0001
0100
0010
,  // measure 100
0001
0000
1000
0000
0001
0000
0100
0000
0010
0000
0100
0001
1000
0000
0010
0000
,  // measure 101
0100
0001
1000
0001
0010
0100
0001
1000
,  // measure 102
0001
0010
0100
0001
1000
0001
0010
0100
,  // measure 103
0001
1000
0001
0010
0010
0001
0100
0010
,  // measure 104
0001
0100
0001
0100
0010
0001
1000
0001
,  // measure 105
0100
0010
0001
0100
0001
0100
0001
0100
,  // measure 106
0010
0001
1000
0001
0100
0010
0001
0100
,  // measure 107
0001
0100
0010
0001
0100
0001
0100
0010
,  // measure 108
0001
1000
0001
0100
0001
0100
0010
0100
,  // measure 109
0001
0100
0010
0100
1000
0010
0100
0001
,  // measure 110
0100
0010
0001
0100
0001
0100
0001
0100
,  // measure 111
0010
0001
0100
0001
0100
0010
0001
1000
,  // measure 112
0001
0100
0001
0100
0010
0001
0100
0001
,  // measure 113
0100
1000
0100
0010
0100
0010
0001
0100
,  // measure 114
0010
0001
0100
0001
0100
0010
0001
1000
,  // measure 115
0001
0100
0010
0001
0100
0001
0100
0010
,  // measure 116
0001
0100
0001
0100
0010
0001
1000
0001
,  // measure 117
0100
0001
0100
0010
0100
0001
0100
0010
,  // measure 118
0001
0100
0001
0100
0010
0001
1000
0001
,  // measure 119
0100
0010
0001
0100
0001
0100
0010
0001
,  // measure 120
1000
0001
0100
0010
0001
0100
0001
0100
,  // measure 121
1000
0000
0000
0000
;
